Классический форум-трекер
canvas not supported
Нас вместе: 4 087 833

Бегущий в лабиринте: Лекарство от смерти / Maze Runner: The Death Cure (2018) BDRemux [H.264/1080p] [EN / EN, Fr, Sp Sub]


 
 
RSS
Начать новую тему   Ответить на тему    Торрент-трекер NNM-Club -> Зарубежное кино -> Фильмы в оригинале (HD, UHD, UHD-LQ)
Автор Сообщение
smaster67 ®
Модератор Видео
Покровитель талантов Uploader 300+
Стаж: 9 лет 2 мес.
Сообщений: 7033
Ratio: 224,594
Поблагодарили: 210641
100%
Бегущий в лабиринте: Лекарство от смерти / Maze Runner: The Death Cure (2018) BDRemux [H.264/1080p] [EN / EN, Fr, Sp Sub]

Производство: США / Gotham Group, Temple Hill Entertainment, Twentieth Century Fox
Жанр: фантастика, боевик, триллер

Режиссер: Уэс Болл
Актеры: Дилан О’Брайен, Ли Ги-хон, Кая Скоделарио, Томас Сэнгстер, Декстер Дарден, Уилл Поултер, Джейкоб Лофленд, Роза Салазар, Джанкарло Эспозито, Патришия Кларксон, Эйдан Гиллен, Барри Пеппер

Описание:
Томас возглавляет отряд выживших глейдеров, чтобы выполнить последнюю и самую опасную миссию. Ради спасения своих друзей они должны проникнуть в легендарный Последний город, смертоносный лабиринт, контролируемый ПОРОКом. Каждый, кто выживет там, наконец-то получит ответы на все вопросы, которые мучили глейдеров с момента попадания в лабиринт.


Возраст: 16+ (зрителям, достигшим 16 лет)
Рейтинг MPAA: PG-13 (детям до 13 лет просмотр нежелателен)

Продолжительность: 02:23:52
Качество видео: BDRemux
Перевод: Отсутствует
Язык озвучки: Английский
Субтитры: английские, испанские, французские

Видео: AVC, 1920x1080 (16:9), 23355 kbps, 23.976 fps, 0.470 bpp
Аудио: английский / DTS-HD / 7.1 / 48 kHz / 5120 kbps / 24 bit
Код: выделить все
General
Unique ID                                Maze.Runner.The.Death.Cure.2018.REMUX.1080p.BluRay.AVC.DTS-HD.MA.7.1-iFT.mkv
Format                                   : Matroska
Format version                           : Version 4 / Version 2
File size                                : 28.6 GiB
Duration                                 : 2 h 23 min
Overall bit rate mode                    : Variable
Overall bit rate                         : 28.5 Mb/s
Movie name                               : Maze.Runner.The.Death.Cure.2018.REMUX.1080p.BluRay.AVC.DTS-HD.MA.7.1-iFT
Encoded date                             : UTC 2018-04-15 04:19:15
Writing application                      : mkvmerge v9.9.0 ('Pick Up') 64bit
Writing library                          : libebml v1.3.4 + libmatroska v1.4.5

Video
ID                                       : 1
Format                                   : AVC
Format/Info                              : Advanced Video Codec
Format profile                           : High@L4.1
Format settings, CABAC                   : Yes
Format settings, ReFrames                : 2 frames
Codec ID                                 : V_MPEG4/ISO/AVC
Duration                                 : 2 h 23 min
Bit rate mode                            : Variable
Bit rate                                 : 23.4 Mb/s
Width                                    : 1 920 pixels
Height                                   : 1 080 pixels
Display aspect ratio                     : 16:9
Frame rate mode                          : Constant
Frame rate                               : 23.976 (24000/1001) FPS
Color space                              : YUV
Chroma subsampling                       : 4:2:0
Bit depth                                : 8 bits
Scan type                                : Progressive
Bits/(Pixel*Frame)                       : 0.470
Stream size                              : 23.5 GiB (82%)
Default                                  : Yes
Forced                                   : No

Audio
ID                                       : 2
Format                                   : DTS
Format/Info                              : Digital Theater Systems
Format profile                           : MA / Core
Mode                                     : 16
Format settings, Endianness              : Big
Codec ID                                 : A_DTS
Duration                                 : 2 h 23 min
Bit rate mode                            : Variable / Constant
Bit rate                                 : 5 120 kb/s / 1 509 kb/s
Channel(s)                               : 8 channels / 6 channels
Channel positions                        : Front: L C R, Side: L R, Back: L R, LFE / Front: L C R, Side: L R, LFE
Sampling rate                            : 48.0 kHz
Frame rate                               : 93.750 FPS (512 spf)
Bit depth                                : 24 bits
Compression mode                         : Lossless / Lossy
Stream size                              : 5.15 GiB (18%)
Language                                 : English
Default                                  : Yes
Forced                                   : No

Text #1
ID                                       : 3
Format                                   : PGS
Muxing mode                              : zlib
Codec ID                                 : S_HDMV/PGS
Codec ID/Info                            : Picture based subtitle format used on BDs/HD-DVDs
Duration                                 : 2 h 15 min
Bit rate                                 : 9 093 b/s
Count of elements                        : 3376
Stream size                              : 8.83 MiB (0%)
Language                                 : English
Default                                  : Yes
Forced                                   : No

Text #2
ID                                       : 4
Format                                   : PGS
Muxing mode                              : zlib
Codec ID                                 : S_HDMV/PGS
Codec ID/Info                            : Picture based subtitle format used on BDs/HD-DVDs
Duration                                 : 2 h 22 min
Bit rate                                 : 6 426 b/s
Count of elements                        : 2786
Stream size                              : 6.55 MiB (0%)
Language                                 : Spanish
Default                                  : No
Forced                                   : No

Text #3
ID                                       : 5
Format                                   : PGS
Muxing mode                              : zlib
Codec ID                                 : S_HDMV/PGS
Codec ID/Info                            : Picture based subtitle format used on BDs/HD-DVDs
Duration                                 : 2 h 22 min
Bit rate                                 : 6 749 b/s
Count of elements                        : 2980
Stream size                              : 6.87 MiB (0%)
Language                                 : French
Default                                  : No
Forced                                   : No
Скриншоты:


Все одноименные релизы в Клубе
Время раздачи: с 13:00 до 23:00
[NNM-Club.me]_Maze.Runner.The.Death.Cure.2018.REMUX.1080p.BluRay.AVC.DTS-HD.MA.7.1-iFT.mkv.torrent
 Торрент: Платиновая раздача  Зарегистрирован
 
Скачать


Примагнититься
 Зарегистрирован:   15 Апр 2018 13:53:15
 Размер:   28,6 GB  (
 Рейтинг:   4,3 (Голосов: 11)
 Поблагодарили:   36
 Проверка:   Оформление проверено модератором 15 Апр 2018 13:54:53
Как cкачать  ·  Как раздать  ·  Правильно оформить  ·  Поднять ратио!  
Показать сообщения:   
Начать новую тему   Ответить на тему    Торрент-трекер NNM-Club -> Зарубежное кино -> Фильмы в оригинале (HD, UHD, UHD-LQ) Часовой пояс: GMT + 3
Страница 1 из 1