Классический форум-трекер
canvas not supported
Нас вместе: 4 065 088

Звёздные войны: Последние джедаи / Star Wars: Episode VIII - The Last Jedi (2017) BDRemux [H.264/1080p] [EN / EN, Fr, Sp Sub]


 
 
RSS
Начать новую тему   Ответить на тему    Торрент-трекер NNM-Club -> Зарубежное кино -> Фильмы в оригинале (HD, UHD, UHD-LQ)
Автор Сообщение
smaster67 ®
Модератор Видео
Покровитель талантов Uploader 300+
Стаж: 9 лет 4 мес.
Сообщений: 7076
Ratio: 226,371
Поблагодарили: 212207
100%
Звёздные войны: Последние джедаи / Star Wars: Episode VIII - The Last Jedi (2017) BDRemux [H.264/1080p] [EN / EN, Fr, Sp Sub]

Производство: США / Lucasfilm, Ram Bergman Productions, Walt Disney Pictures
Жанр: фантастика, фэнтези, боевик, приключения

Режиссер: Райан Джонсон
Актеры: Марк Хэмилл, Кэрри Фишер, Адам Драйвер, Дэйзи Ридли, Джон Бойега, Оскар Айзек, Энди Серкис, Лупита Нионго, Донал Глисон, Энтони Дэниелс, Гвендолин Кристи, Келли Мари Трэн

Описание:
Новая история о противостоянии света и тьмы, добра и зла начинается после гибели Хана Соло. В Галактике, где Первый Орден и Сопротивление яростно сражаются друг с другом в войне, героиня Рей пробудила в себе Силу. Но что произойдет, когда она встретится с единственным оставшимся в живых рыцарем-джедаем - Люком Скайуокером?
Кайло Рен перешел на Темную сторону Силы и убил собственного отца, заняв высокую позицию в Первом Ордене. Но куда приведут его неуемные амбиции, подаренные по наследству грозным дедом Дартом Вейдером? Ситуация обострится еще больше, когда мать Кайло, лидер Сопротивления Лея, вместе с По, Финном и BB-8 приступит к новой миссии.


Возраст: 16+ (зрителям, достигшим 16 лет)
Рейтинг MPAA: PG-13 (детям до 13 лет просмотр нежелателен)

Продолжительность: 02:31:51
Качество видео: BDRemux
Перевод: Отсутствует
Язык озвучки: Английский
Субтитры: английские, испанские, французские

Видео: AVC, 1920x1080 (16:9), 30704 kbps, 23.976 fps, 0.618 bpp
Аудио: DTS-HD / 7.1 / 48 kHz / 4629 kbps / 24 bit
Код: выделить все
General
Unique ID                               Star.Wars.The.Last.Jedi.2017.REMUX.BluRay.1080p.AVC.DTS-HD.MA7.1-iFT.mkv
Format                                   : Matroska
Format version                           : Version 4 / Version 2
File size                                : 37.6 GiB
Duration                                 : 2 h 31 min
Overall bit rate mode                    : Variable
Overall bit rate                         : 35.4 Mb/s
Encoded date                             : UTC 2018-03-13 17:31:47
Writing application                      : mkvmerge v8.5.1 ('Where you lead I will follow') 64bit
Writing library                          : libebml v1.3.3 + libmatroska v1.4.4

Video
ID                                       : 1
Format                                   : AVC
Format/Info                              : Advanced Video Codec
Format profile                           : High@L4.1
Format settings, CABAC                   : Yes
Format settings, ReFrames                : 4 frames
Codec ID                                 : V_MPEG4/ISO/AVC
Duration                                 : 2 h 31 min
Bit rate mode                            : Variable
Bit rate                                 : 30.7 Mb/s
Maximum bit rate                         : 37.0 Mb/s
Width                                    : 1 920 pixels
Height                                   : 1 080 pixels
Display aspect ratio                     : 16:9
Frame rate mode                          : Constant
Frame rate                               : 23.976 (24000/1001) FPS
Color space                              : YUV
Chroma subsampling                       : 4:2:0
Bit depth                                : 8 bits
Scan type                                : Progressive
Bits/(Pixel*Frame)                       : 0.618
Stream size                              : 32.6 GiB (87%)
Default                                  : No
Forced                                   : No

Audio
ID                                       : 2
Format                                   : DTS
Format/Info                              : Digital Theater Systems
Format profile                           : MA / Core
Mode                                     : 16
Format settings, Endianness              : Big
Codec ID                                 : A_DTS
Duration                                 : 2 h 31 min
Bit rate mode                            : Variable / Constant
Bit rate                                 : 4 629 kb/s / 1 509 kb/s
Channel(s)                               : 8 channels / 6 channels
Channel positions                        : Front: L C R, Side: L R, Back: L R, LFE / Front: L C R, Side: L R, LFE
Sampling rate                            : 48.0 kHz
Frame rate                               : 93.750 FPS (512 spf)
Bit depth                                : 24 bits
Compression mode                         : Lossless / Lossy
Stream size                              : 4.91 GiB (13%)
Default                                  : Yes
Forced                                   : No

Text #1
ID                                       : 3
Format                                   : PGS
Muxing mode                              : zlib
Codec ID                                 : S_HDMV/PGS
Codec ID/Info                            : Picture based subtitle format used on BDs/HD-DVDs
Duration                                 : 2 h 24 min
Bit rate                                 : 21.6 kb/s
Count of elements                        : 4798
Stream size                              : 22.3 MiB (0%)
Language                                 : English
Default                                  : Yes
Forced                                   : No

Text #2
ID                                       : 4
Format                                   : PGS
Muxing mode                              : zlib
Codec ID                                 : S_HDMV/PGS
Codec ID/Info                            : Picture based subtitle format used on BDs/HD-DVDs
Duration                                 : 2 h 24 min
Bit rate                                 : 18.6 kb/s
Count of elements                        : 4758
Stream size                              : 19.2 MiB (0%)
Language                                 : Spanish
Default                                  : No
Forced                                   : No

Text #3
ID                                       : 5
Format                                   : PGS
Muxing mode                              : zlib
Codec ID                                 : S_HDMV/PGS
Codec ID/Info                            : Picture based subtitle format used on BDs/HD-DVDs
Duration                                 : 2 h 24 min
Bit rate                                 : 18.6 kb/s
Count of elements                        : 4758
Stream size                              : 19.2 MiB (0%)
Language                                 : French
Default                                  : No
Forced                                   : No

Text #4
ID                                       : 6
Format                                   : PGS
Muxing mode                              : zlib
Codec ID                                 : S_HDMV/PGS
Codec ID/Info                            : Picture based subtitle format used on BDs/HD-DVDs
Duration                                 : 2 h 23 min
Bit rate                                 : 10.1 kb/s
Count of elements                        : 3796
Stream size                              : 10.4 MiB (0%)
Language                                 : English
Default                                  : No
Forced                                   : No

Text #5
ID                                       : 7
Format                                   : PGS
Muxing mode                              : zlib
Codec ID                                 : S_HDMV/PGS
Codec ID/Info                            : Picture based subtitle format used on BDs/HD-DVDs
Duration                                 : 2 h 25 min
Bit rate                                 : 8 240 b/s
Count of elements                        : 3416
Stream size                              : 8.56 MiB (0%)
Language                                 : French
Default                                  : No
Forced                                   : No

Text #6
ID                                       : 8
Format                                   : PGS
Muxing mode                              : zlib
Codec ID                                 : S_HDMV/PGS
Codec ID/Info                            : Picture based subtitle format used on BDs/HD-DVDs
Duration                                 : 2 h 22 min
Bit rate                                 : 8 084 b/s
Count of elements                        : 3182
Stream size                              : 8.25 MiB (0%)
Language                                 : Spanish
Default                                  : No
Forced                                   : No

Menu
00:00:00.000                             : en:00:00:00.000
00:00:18.644                             : en:00:00:18.644
00:01:45.731                             : en:00:01:45.731
00:03:11.817                             : en:00:03:11.817
00:07:43.296                             : en:00:07:43.296
00:12:48.434                             : en:00:12:48.434
00:13:44.574                             : en:00:13:44.574
00:16:29.280                             : en:00:16:29.280
00:19:59.281                             : en:00:19:59.281
00:22:51.370                             : en:00:22:51.370
00:26:04.980                             : en:00:26:04.980
00:27:22.850                             : en:00:27:22.850
00:31:24.758                             : en:00:31:24.758
00:32:54.681                             : en:00:32:54.681
00:35:27.667                             : en:00:35:27.667
00:38:11.498                             : en:00:38:11.498
00:41:53.428                             : en:00:41:53.428
00:44:29.542                             : en:00:44:29.542
00:46:51.475                             : en:00:46:51.475
00:51:41.932                             : en:00:51:41.932
00:53:50.060                             : en:00:53:50.060
00:55:41.505                             : en:00:55:41.505
00:57:39.581                             : en:00:57:39.581
00:59:16.636                             : en:00:59:16.636
01:02:05.847                             : en:01:02:05.847
01:03:07.701                             : en:01:03:07.701
01:05:41.729                             : en:01:05:41.729
01:07:03.478                             : en:01:07:03.478
01:10:25.721                             : en:01:10:25.721
01:13:30.323                             : en:01:13:30.323
01:17:43.450                             : en:01:17:43.450
01:20:53.057                             : en:01:20:53.057
01:24:17.970                             : en:01:24:17.970
01:26:23.220                             : en:01:26:23.220
01:27:59.524                             : en:01:27:59.524
01:30:49.361                             : en:01:30:49.361
01:32:54.569                             : en:01:32:54.569
01:35:53.706                             : en:01:35:53.706
01:37:10.616                             : en:01:37:10.616
01:39:12.864                             : en:01:39:12.864
01:42:07.663                             : en:01:42:07.663
01:45:03.714                             : en:01:45:03.714
01:49:35.694                             : en:01:49:35.694
01:52:20.609                             : en:01:52:20.609
01:56:04.749                             : en:01:56:04.749
01:58:52.083                             : en:01:58:52.083
02:03:11.134                             : en:02:03:11.134
02:06:39.759                             : en:02:06:39.759
02:11:43.604                             : en:02:11:43.604
02:15:12.104                             : en:02:15:12.104
02:20:16.700                             : en:02:20:16.700
02:23:39.694                             : en:02:23:39.694

Скриншоты:



Все одноименные релизы в Клубе

Время раздачи: с 13:00 до 23:00
[NNM-Club.me]_Star.Wars.The.Last.Jedi.2017.REMUX.BluRay.1080p.AVC.DTS-HD.MA7.1-iFT.mkv.torrent
 Торрент: Платиновая раздача  Зарегистрирован
 
Скачать


Примагнититься
 Зарегистрирован:   13 Мар 2018 23:44:19
 Размер:   37,6 GB  (
 Рейтинг:   3,9 (Голосов: 11)
 Поблагодарили:   63
 Проверка:   Оформление проверено модератором 13 Мар 2018 23:47:00
Как cкачать  ·  Как раздать  ·  Правильно оформить  ·  Поднять ратио!  
kocmokot4
Стаж: 3 года 6 мес.
Сообщений: 80
Ratio: 5,928
0.43%
http://subtitry.ru/subtitles/1090422884/?star-wars-episode-viii-the-last-jedi
DOC2
Стаж: 8 лет 11 мес.
Сообщений: 41
Ratio: 16,904
100%
witch.png
Вообще-то уже везде есть русский язык......
Geo_the_Great
Стаж: 8 лет 10 мес.
Сообщений: 19
Ratio: 6,525
3.95%
russia.gif
Мне кажется, что если нечего сказать - то лучше помолчать... Это в первую очередь касается Лукаса и его компании, которые пытаются из ничего сделать какое-то подобие фильма...
_zondar_
Стаж: 8 лет 1 мес.
Сообщений: 66
Ratio: 20,982
Поблагодарили: 342
100%
Geo_the_Great писал(а): Перейти к сообщению
Мне кажется, что если нечего сказать - то лучше помолчать... Это в первую очередь касается Лукаса и его компании, которые пытаются из ничего сделать какое-то подобие фильма...

А причем тут Лукас? Он к последним фильмам не имеет никакого отношения.
Показать сообщения:   
Начать новую тему   Ответить на тему    Торрент-трекер NNM-Club -> Зарубежное кино -> Фильмы в оригинале (HD, UHD, UHD-LQ) Часовой пояс: GMT + 3
Страница 1 из 1