Классический форум-трекер
canvas not supported
Нас вместе: 4 088 278

Джуманджи: Зов джунглей / Jumanji: Welcome to the Jungle (2017) BDRemux [H.264/1080p] [EN / EN and other Sub]


 
 
RSS
Начать новую тему   Ответить на тему    Торрент-трекер NNM-Club -> Зарубежное кино -> Фильмы в оригинале (HD, UHD, UHD-LQ)
Автор Сообщение
smaster67 ®
Модератор Видео
Покровитель талантов Uploader 300+
Стаж: 9 лет 2 мес.
Сообщений: 7030
Ratio: 224,424
Поблагодарили: 210598
100%
Джуманджи: Зов джунглей / Jumanji: Welcome to the Jungle (2017) BDRemux [H.264/1080p] [EN / EN and other Sub]

Производство: США / Matt Tolmach Productions, Radar Pictures, Seven Bucks Productions, Sony Pictures Entertainment (SPE)
Жанр: фэнтези, боевик, комедия, приключения

Режиссер: Джейк Кэздан
Актеры: Дуэйн Джонсон, Кевин Харт, Джек Блэк, Карен Гиллан, Риз Дэрби, Бобби Каннавале, Ник Джонас, Алекс Вулф, Сер’Дариус Блэйн, Мэдисон Исман, Морган Тернер, Шон Бакстон

Описание:
Четверо подростков оказываются внутри игры «Джуманджи». Их ждет схватка с носорогами, черными мамбами, а на каждом шагу будет подстерегать бесконечная череда ловушек и головоломок. Чтобы пройти игру и остаться в живых, им придется перевоплотиться в персонажей игры: робкий и застенчивый Спенсер превращается в отважного и сильного исследователя, здоровяк Фридж - в коротышку, модница и красавица Беттани - в профессора, а неуклюжая и нескладная Марта становится бесстрашной и ловкой амазонкой. Друзьям придется привыкнуть к совершенно новым и таким непривычным для себя ролям и найти дорогу домой.


Возраст: 16+ (зрителям, достигшим 16 лет)
Рейтинг MPAA: PG-13 (детям до 13 лет просмотр нежелателен)

Продолжительность: 01:59:03
Качество видео: BDRemux
Перевод: Отсутствует
Язык озвучки: Английский
Субтитры: английские, китайские, французские, индонезийские, корейские, малайские, португальские,
испанские, тайские, вьетнамские

Видео: AVC, 1920x1080 (16:9), 24881 kbps, 23.976 fps, 0.500 bpp
Аудио: DTS-HD / 5.1 / 48 kHz / 2249 kbps / 16 bit (Core: 5.1 / 48 kHz / 1509 kbps / 16 bit)
Код: выделить все
General
Unique ID                              Jumanji.Welcome.to.the.Jungle.2017.REMUX.BluRay.1080p.AVC.DTS-HD.MA5.1-iFT.mkv
Format                                   : Matroska
Format version                           : Version 4 / Version 2
File size                                : 22.8 GiB
Duration                                 : 1 h 59 min
Overall bit rate mode                    : Variable
Overall bit rate                         : 27.4 Mb/s
Encoded date                             : UTC 2018-03-13 05:00:45
Writing application                      : mkvmerge v8.5.1 ('Where you lead I will follow') 64bit
Writing library                          : libebml v1.3.3 + libmatroska v1.4.4

Video
ID                                       : 1
Format                                   : AVC
Format/Info                              : Advanced Video Codec
Format profile                           : High@L4.1
Format settings, CABAC                   : Yes
Format settings, ReFrames                : 2 frames
Format settings, GOP                     : M=1, N=10
Codec ID                                 : V_MPEG4/ISO/AVC
Duration                                 : 1 h 59 min
Bit rate mode                            : Variable
Bit rate                                 : 24.9 Mb/s
Width                                    : 1 920 pixels
Height                                   : 1 080 pixels
Display aspect ratio                     : 16:9
Frame rate mode                          : Constant
Frame rate                               : 23.976 (24000/1001) FPS
Color space                              : YUV
Chroma subsampling                       : 4:2:0
Bit depth                                : 8 bits
Scan type                                : Progressive
Bits/(Pixel*Frame)                       : 0.500
Stream size                              : 20.7 GiB (91%)
Default                                  : No
Forced                                   : No

Audio
ID                                       : 2
Format                                   : DTS
Format/Info                              : Digital Theater Systems
Format profile                           : MA / Core
Mode                                     : 16
Format settings, Endianness              : Big
Codec ID                                 : A_DTS
Duration                                 : 1 h 59 min
Bit rate mode                            : Variable / Constant
Bit rate                                 : 2 249 kb/s / 1 509 kb/s
Channel(s)                               : 6 channels
Channel positions                        : Front: L C R, Side: L R, LFE
Sampling rate                            : 48.0 kHz
Frame rate                               : 93.750 FPS (512 spf)
Bit depth                                : 16 bits
Compression mode                         : Lossless / Lossy
Stream size                              : 1.87 GiB (8%)
Default                                  : Yes
Forced                                   : No

Text #1
ID                                       : 3
Format                                   : PGS
Muxing mode                              : zlib
Codec ID                                 : S_HDMV/PGS
Codec ID/Info                            : Picture based subtitle format used on BDs/HD-DVDs
Duration                                 : 1 h 58 min
Bit rate                                 : 21.5 kb/s
Count of elements                        : 3764
Stream size                              : 18.2 MiB (0%)
Language                                 : English
Default                                  : Yes
Forced                                   : No

Text #2
ID                                       : 4
Format                                   : PGS
Muxing mode                              : zlib
Codec ID                                 : S_HDMV/PGS
Codec ID/Info                            : Picture based subtitle format used on BDs/HD-DVDs
Duration                                 : 1 h 48 min
Bit rate                                 : 19.9 kb/s
Count of elements                        : 3070
Stream size                              : 15.5 MiB (0%)
Language                                 : English
Default                                  : No
Forced                                   : No

Text #3
ID                                       : 5
Format                                   : PGS
Muxing mode                              : zlib
Codec ID                                 : S_HDMV/PGS
Codec ID/Info                            : Picture based subtitle format used on BDs/HD-DVDs
Duration                                 : 1 h 58 min
Bit rate                                 : 18.7 kb/s
Count of elements                        : 2989
Stream size                              : 15.8 MiB (0%)
Language                                 : Chinese
Default                                  : No
Forced                                   : No

Text #4
ID                                       : 6
Format                                   : PGS
Muxing mode                              : zlib
Codec ID                                 : S_HDMV/PGS
Codec ID/Info                            : Picture based subtitle format used on BDs/HD-DVDs
Duration                                 : 1 h 58 min
Bit rate                                 : 22.2 kb/s
Count of elements                        : 3126
Stream size                              : 18.8 MiB (0%)
Language                                 : Chinese
Default                                  : No
Forced                                   : No

Text #5
ID                                       : 7
Format                                   : PGS
Muxing mode                              : zlib
Codec ID                                 : S_HDMV/PGS
Codec ID/Info                            : Picture based subtitle format used on BDs/HD-DVDs
Duration                                 : 1 h 58 min
Bit rate                                 : 18.4 kb/s
Count of elements                        : 3000
Stream size                              : 15.5 MiB (0%)
Language                                 : Chinese
Default                                  : No
Forced                                   : No

Text #6
ID                                       : 8
Format                                   : PGS
Muxing mode                              : zlib
Codec ID                                 : S_HDMV/PGS
Codec ID/Info                            : Picture based subtitle format used on BDs/HD-DVDs
Duration                                 : 1 h 57 min
Bit rate                                 : 14.0 kb/s
Count of elements                        : 2800
Stream size                              : 11.7 MiB (0%)
Language                                 : French
Default                                  : No
Forced                                   : No

Text #7
ID                                       : 9
Format                                   : PGS
Muxing mode                              : zlib
Codec ID                                 : S_HDMV/PGS
Codec ID/Info                            : Picture based subtitle format used on BDs/HD-DVDs
Duration                                 : 1 h 57 min
Bit rate                                 : 16.5 kb/s
Count of elements                        : 3025
Stream size                              : 13.9 MiB (0%)
Language                                 : Indonesian
Default                                  : No
Forced                                   : No

Text #8
ID                                       : 10
Format                                   : PGS
Muxing mode                              : zlib
Codec ID                                 : S_HDMV/PGS
Codec ID/Info                            : Picture based subtitle format used on BDs/HD-DVDs
Duration                                 : 1 h 58 min
Bit rate                                 : 12.2 kb/s
Count of elements                        : 3052
Stream size                              : 10.3 MiB (0%)
Language                                 : Korean
Default                                  : No
Forced                                   : No

Text #9
ID                                       : 11
Format                                   : PGS
Muxing mode                              : zlib
Codec ID                                 : S_HDMV/PGS
Codec ID/Info                            : Picture based subtitle format used on BDs/HD-DVDs
Duration                                 : 1 h 57 min
Bit rate                                 : 18.9 kb/s
Count of elements                        : 3126
Stream size                              : 15.9 MiB (0%)
Language                                 : Malay
Default                                  : No
Forced                                   : No

Text #10
ID                                       : 12
Format                                   : PGS
Muxing mode                              : zlib
Codec ID                                 : S_HDMV/PGS
Codec ID/Info                            : Picture based subtitle format used on BDs/HD-DVDs
Duration                                 : 1 h 57 min
Bit rate                                 : 16.8 kb/s
Count of elements                        : 2878
Stream size                              : 14.1 MiB (0%)
Language                                 : Portuguese
Default                                  : No
Forced                                   : No

Text #11
ID                                       : 13
Format                                   : PGS
Muxing mode                              : zlib
Codec ID                                 : S_HDMV/PGS
Codec ID/Info                            : Picture based subtitle format used on BDs/HD-DVDs
Duration                                 : 1 h 57 min
Bit rate                                 : 17.1 kb/s
Count of elements                        : 3026
Stream size                              : 14.4 MiB (0%)
Language                                 : Spanish
Default                                  : No
Forced                                   : No

Text #12
ID                                       : 14
Format                                   : PGS
Muxing mode                              : zlib
Codec ID                                 : S_HDMV/PGS
Codec ID/Info                            : Picture based subtitle format used on BDs/HD-DVDs
Duration                                 : 1 h 57 min
Bit rate                                 : 15.3 kb/s
Count of elements                        : 3120
Stream size                              : 12.9 MiB (0%)
Language                                 : Thai
Default                                  : No
Forced                                   : No

Text #13
ID                                       : 15
Format                                   : PGS
Muxing mode                              : zlib
Codec ID                                 : S_HDMV/PGS
Codec ID/Info                            : Picture based subtitle format used on BDs/HD-DVDs
Duration                                 : 1 h 58 min
Bit rate                                 : 18.6 kb/s
Count of elements                        : 3086
Stream size                              : 15.7 MiB (0%)
Language                                 : Vietnamese
Default                                  : No
Forced                                   : No

Menu
00:00:00.000                             : en:00:00:00.000
00:07:18.104                             : en:00:07:18.104
00:17:15.993                             : en:00:17:15.993
00:23:23.235                             : en:00:23:23.235
00:29:24.972                             : en:00:29:24.972
00:42:28.546                             : en:00:42:28.546
00:47:11.162                             : en:00:47:11.162
00:54:26.722                             : en:00:54:26.722
01:03:20.839                             : en:01:03:20.839
01:10:21.801                             : en:01:10:21.801
01:15:51.672                             : en:01:15:51.672
01:24:10.087                             : en:01:24:10.087
01:28:20.295                             : en:01:28:20.295
01:33:48.414                             : en:01:33:48.414
01:42:22.887                             : en:01:42:22.887
01:48:31.839                             : en:01:48:31.839

Скриншоты:



Все одноименные релизы в Клубе

Время раздачи: с 13:00 до 23:00
[NNM-Club.me]_Jumanji.Welcome.to.the.Jungle.2017.REMUX.BluRay.1080p.AVC.DTS-HD.MA5.1-iFT.mkv.torrent
 Торрент: Платиновая раздача  Зарегистрирован
 
Скачать


Примагнититься
 Зарегистрирован:   13 Мар 2018 15:20:00
 Размер:   22,8 GB  (
 Рейтинг:   4,1 (Голосов: 12)
 Поблагодарили:   49
 Проверка:   Оформление проверено модератором 13 Мар 2018 15:20:51
Как cкачать  ·  Как раздать  ·  Правильно оформить  ·  Поднять ратио!  
miiss
Стаж: 2 года 1 мес.
Сообщений: 5
Ratio: 1,216
52.7%
скорость скачивания ..... = 0,111
Показать сообщения:   
Начать новую тему   Ответить на тему    Торрент-трекер NNM-Club -> Зарубежное кино -> Фильмы в оригинале (HD, UHD, UHD-LQ) Часовой пояс: GMT + 3
Страница 1 из 1