Классический форум-трекер
canvas not supported
Нас вместе: 4 088 287

Короче / Downsizing (2017) BDRemux [H.264/1080p] [EN / EN, Fr, Sp, Po Sub]


 
 
RSS
Начать новую тему   Ответить на тему    Торрент-трекер NNM-Club -> Зарубежное кино -> Фильмы в оригинале (HD, UHD, UHD-LQ)
Автор Сообщение
smaster67 ®
Модератор Видео
Покровитель талантов Uploader 300+
Стаж: 9 лет 2 мес.
Сообщений: 7030
Ratio: 224,424
Поблагодарили: 210598
100%
Короче / Downsizing (2017) BDRemux [H.264/1080p] [EN / EN, Fr, Sp, Po Sub]

Производство: США / Paramount Pictures, Ad Hominem Enterprises, Annapurna Pictures
Жанр: фантастика, драма, комедия

Режиссер: Александр Пэйн
Актеры: Мэтт Дэймон, Кристоф Вальц, Хонг Чау, Кристен Уиг, Рольф Лассгорд, Ингьерд Эгеберг, Удо Кир, Сёрен Пильмарк, Джейн Ходишелл, Джейсон Судейкис, Мэрибет Монро, Фил Ривз

Описание:
Фантастическая история о неожиданном решении проблемы перенаселения планеты: норвежские ученые придумывают технологию по уменьшению людей, благодаря которой через 200 лет весь мир можно сделать миниатюрным. К тому же мини-жизнь предлагает массу финансовых выгод, так что простой парень Пол и его жена Одри, недолго думая, решают оставить свое унылое существование в Омахе и пройти процедуру уменьшения. Это их решение повлечет за собой самые удивительные последствия...


Возраст: 18+ (зрителям, достигшим 18 лет. запрещено для детей)
Рейтинг MPAA: R (лицам до 17 лет обязательно присутствие взрослого)

Продолжительность: 02:15:20
Качество видео: BDRemux
Перевод: Отсутствует
Язык озвучки: Английский
Субтитры: английские, испанские, французские, португальские

Видео: AVC, 1920x1080 (16:9), 24902 kbps, 23.976 fps, 0.501 bpp
Аудио: DTS-HD / 48 kHz / 7.1 / 4370 kbps / 24 bit
Код: выделить все
General
Unique ID                               Downsizing.2017.REMUX.BluRay.1080p.AVC.DTS-HD.MA7.1-iFT.mkv
Format                                   : Matroska
Format version                           : Version 4 / Version 2
File size                                : 27.7 GiB
Duration                                 : 2 h 15 min
Overall bit rate mode                    : Variable
Overall bit rate                         : 29.3 Mb/s
Encoded date                             : UTC 2018-03-12 16:05:46
Writing application                      : mkvmerge v8.5.1 ('Where you lead I will follow') 64bit
Writing library                          : libebml v1.3.3 + libmatroska v1.4.4

Video
ID                                       : 1
Format                                   : AVC
Format/Info                              : Advanced Video Codec
Format profile                           : High@L4.1
Format settings, CABAC                   : Yes
Format settings, ReFrames                : 4 frames
Codec ID                                 : V_MPEG4/ISO/AVC
Duration                                 : 2 h 15 min
Bit rate mode                            : Variable
Bit rate                                 : 24.9 Mb/s
Maximum bit rate                         : 30.0 Mb/s
Width                                    : 1 920 pixels
Height                                   : 1 080 pixels
Display aspect ratio                     : 16:9
Frame rate mode                          : Constant
Frame rate                               : 23.976 (24000/1001) FPS
Color space                              : YUV
Chroma subsampling                       : 4:2:0
Bit depth                                : 8 bits
Scan type                                : Progressive
Bits/(Pixel*Frame)                       : 0.501
Stream size                              : 23.5 GiB (85%)
Default                                  : No
Forced                                   : No

Audio
ID                                       : 2
Format                                   : DTS
Format/Info                              : Digital Theater Systems
Format profile                           : MA / Core
Mode                                     : 16
Format settings, Endianness              : Big
Codec ID                                 : A_DTS
Duration                                 : 2 h 15 min
Bit rate mode                            : Variable / Constant
Bit rate                                 : 4 370 kb/s / 1 509 kb/s
Channel(s)                               : 8 channels / 6 channels
Channel positions                        : Front: L C R, Side: L R, Back: L R, LFE / Front: L C R, Side: L R, LFE
Sampling rate                            : 48.0 kHz
Frame rate                               : 93.750 FPS (512 spf)
Bit depth                                : 24 bits
Compression mode                         : Lossless / Lossy
Stream size                              : 4.13 GiB (15%)
Default                                  : Yes
Forced                                   : No

Text #1
ID                                       : 3
Format                                   : PGS
Muxing mode                              : zlib
Codec ID                                 : S_HDMV/PGS
Codec ID/Info                            : Picture based subtitle format used on BDs/HD-DVDs
Duration                                 : 2 h 4 min
Bit rate                                 : 11.2 kb/s
Count of elements                        : 3270
Stream size                              : 9.99 MiB (0%)
Language                                 : English
Default                                  : Yes
Forced                                   : No

Text #2
ID                                       : 4
Format                                   : PGS
Muxing mode                              : zlib
Codec ID                                 : S_HDMV/PGS
Codec ID/Info                            : Picture based subtitle format used on BDs/HD-DVDs
Duration                                 : 2 h 7 min
Bit rate                                 : 12.4 kb/s
Count of elements                        : 3661
Stream size                              : 11.3 MiB (0%)
Language                                 : English
Default                                  : No
Forced                                   : No

Text #3
ID                                       : 5
Format                                   : PGS
Muxing mode                              : zlib
Codec ID                                 : S_HDMV/PGS
Codec ID/Info                            : Picture based subtitle format used on BDs/HD-DVDs
Duration                                 : 2 h 14 min
Bit rate                                 : 9 642 b/s
Count of elements                        : 3120
Stream size                              : 9.29 MiB (0%)
Language                                 : Spanish
Default                                  : No
Forced                                   : No

Text #4
ID                                       : 6
Format                                   : PGS
Muxing mode                              : zlib
Codec ID                                 : S_HDMV/PGS
Codec ID/Info                            : Picture based subtitle format used on BDs/HD-DVDs
Duration                                 : 2 h 14 min
Bit rate                                 : 10.6 kb/s
Count of elements                        : 3498
Stream size                              : 10.2 MiB (0%)
Language                                 : French
Default                                  : No
Forced                                   : No

Text #5
ID                                       : 7
Format                                   : PGS
Muxing mode                              : zlib
Codec ID                                 : S_HDMV/PGS
Codec ID/Info                            : Picture based subtitle format used on BDs/HD-DVDs
Duration                                 : 2 h 14 min
Bit rate                                 : 8 544 b/s
Count of elements                        : 3124
Stream size                              : 8.23 MiB (0%)
Language                                 : Portuguese
Default                                  : No
Forced                                   : No

Menu
00:00:00.000                             : en:00:00:00.000
00:06:13.540                             : en:00:06:13.540
00:10:38.346                             : en:00:10:38.346
00:16:24.483                             : en:00:16:24.483
00:22:14.667                             : en:00:22:14.667
00:30:23.905                             : en:00:30:23.905
00:38:44.364                             : en:00:38:44.364
00:42:38.598                             : en:00:42:38.598
00:47:36.687                             : en:00:47:36.687
00:55:08.722                             : en:00:55:08.722
01:04:35.830                             : en:01:04:35.830
01:13:11.596                             : en:01:13:11.596
01:21:13.202                             : en:01:21:13.202
01:28:00.775                             : en:01:28:00.775
01:33:25.308                             : en:01:33:25.308
01:41:42.513                             : en:01:41:42.513
01:44:11.871                             : en:01:44:11.871
01:51:54.374                             : en:01:51:54.374
01:58:36.443                             : en:01:58:36.443
02:08:58.856                             : en:02:08:58.856

Скриншоты:



Все одноименные релизы в Клубе

Время раздачи: с 13:00 до 23:00
[NNM-Club.me]_Downsizing.2017.REMUX.BluRay.1080p.AVC.DTS-HD.MA7.1-iFT.mkv.torrent
 Торрент: Платиновая раздача  Зарегистрирован
 
Скачать


Примагнититься
 Зарегистрирован:   12 Мар 2018 21:50:36
 Размер:   27,7 GB  (
 Рейтинг:   4,4 (Голосов: 11)
 Поблагодарили:   45
 Проверка:   Оформление проверено модератором 12 Мар 2018 21:51:58
Как cкачать  ·  Как раздать  ·  Правильно оформить  ·  Поднять ратио!  
jumpster
Стаж: 9 лет 1 мес.
Сообщений: 4
Ratio: 4,92
24%
russia.gif
Опять ОН!!! Мэтт Дэймон! Смотреть не буду!
Показать сообщения:   
Начать новую тему   Ответить на тему    Торрент-трекер NNM-Club -> Зарубежное кино -> Фильмы в оригинале (HD, UHD, UHD-LQ) Часовой пояс: GMT + 3
Страница 1 из 1