Классический форум-трекер
canvas not supported
Нас вместе: 4 064 860

Выжженная земля / Scorched Earth (2018) BDRemux [H.264/1080p] [EN / EN Sub]


 
 
RSS
Начать новую тему   Ответить на тему    Торрент-трекер NNM-Club -> Зарубежное кино -> Фильмы в оригинале (HD, UHD, UHD-LQ)
Автор Сообщение
smaster67 ®
Модератор Видео
Покровитель талантов Uploader 300+
Стаж: 9 лет 5 мес.
Сообщений: 7100
Ratio: 226,573
Поблагодарили: 213220
100%
Выжженная земля / Scorched Earth (2018) BDRemux [H.264/1080p] [EN / EN Sub]

Производство: Канада, США / Lighthouse Pictures, Okanagan Media
Жанр: фантастика, боевик

Режиссер: Питер Хауит
Актеры: Джина Карано, Сара Троер, Джон Ханна, Алиша Ньютон, Стефани Беннетт, Райан Роббинс, Патрик Сабонгуй, Лувия Петерсен, Патрик Гилмор, Дэниэл Бэйкон, Дин Джаггер III, Нэйтан Митчелл

Описание:
Будущее, на планете случилась некая глобальная катастрофа, в результате которой погибли миллиарды людей. Охотница за головами, которая почти ничем не отличается от тех, за кем охотится, пытается найти и обезвредить самого опасного преступника нового мира. За это ей обещают солидный куш.


Рейтинг MPAA: R (лицам до 17 лет обязательно присутствие взрослого)

Продолжительность: 01:33:55
Качество видео: BDRemux
Перевод: Отсутствует
Язык озвучки: Английский
Субтитры: английские

Видео: AVC, 1920x1080 (16:9), 22909 kbps, 23.976 fps, 0.461 bpp
Аудио: английский / DTS-HD / 5.1 / 48 kHz / 3757 kbps / 24 bit (Core: 5.1 / 48 kHz / 1509 kbps / 24 bit)
Код: выделить все
General
Unique ID
Complete name                         Scorched.Earth.2018.BluRay.1080p.DTS-HD.MA.5.1.AVC.REMUX-FraMeSToR.mkv
Format                                   : Matroska
Format version                           : Version 4 / Version 2
File size                                : 17.5 GiB
Duration                                 : 1 h 33 min
Overall bit rate mode                    : Variable
Overall bit rate                         : 26.7 Mb/s
Movie name                               : Scorched Earth
Encoded date                             : UTC 2018-03-06 15:52:22
Writing application                      : mkvmerge v21.0.0 ('Tardigrades Will Inherit The Earth') 64-bit
Writing library                          : libebml v1.3.5 + libmatroska v1.4.8

Video
ID                                       : 1
Format                                   : AVC
Format/Info                              : Advanced Video Codec
Format profile                           : High@L4.1
Format settings, CABAC                   : Yes
Format settings, ReFrames                : 4 frames
Codec ID                                 : V_MPEG4/ISO/AVC
Duration                                 : 1 h 33 min
Bit rate mode                            : Variable
Bit rate                                 : 22.9 Mb/s
Maximum bit rate                         : 36.5 Mb/s
Width                                    : 1 920 pixels
Height                                   : 1 080 pixels
Display aspect ratio                     : 16:9
Frame rate mode                          : Constant
Frame rate                               : 23.976 (24000/1001) FPS
Color space                              : YUV
Chroma subsampling                       : 4:2:0
Bit depth                                : 8 bits
Scan type                                : Progressive
Bits/(Pixel*Frame)                       : 0.461
Stream size                              : 15.0 GiB (86%)
Default                                  : Yes
Forced                                   : No

Audio
ID                                       : 2
Format                                   : DTS
Format/Info                              : Digital Theater Systems
Format profile                           : MA / Core
Mode                                     : 16
Format settings, Endianness              : Big
Codec ID                                 : A_DTS
Duration                                 : 1 h 33 min
Bit rate mode                            : Variable / Constant
Bit rate                                 : 3 758 kb/s / 1 509 kb/s
Channel(s)                               : 6 channels
Channel positions                        : Front: L C R, Side: L R, LFE
Sampling rate                            : 48.0 kHz
Frame rate                               : 93.750 FPS (512 spf)
Bit depth                                : 24 bits
Compression mode                         : Lossless / Lossy
Stream size                              : 2.47 GiB (14%)
Title                                    : DTS-HD MA 5.1
Language                                 : English
Default                                  : Yes
Forced                                   : No

Text
ID                                       : 3
Format                                   : PGS
Codec ID                                 : S_HDMV/PGS
Codec ID/Info                            : Picture based subtitle format used on BDs/HD-DVDs
Duration                                 : 1 h 29 min
Bit rate                                 : 21.4 kb/s
Count of elements                        : 2418
Stream size                              : 13.7 MiB (0%)
Title                                    : English (SDH)
Language                                 : English
Default                                  : No
Forced                                   : No

Menu
00:00:00.000                             : en:Chapter 01
00:12:18.029                             : en:Chapter 02
00:24:05.903                             : en:Chapter 03
00:37:14.858                             : en:Chapter 04
00:50:44.917                             : en:Chapter 05
01:01:09.082                             : en:Chapter 06
01:14:11.030                             : en:Chapter 07
01:28:41.983                             : en:Chapter 08

Скриншоты:



Все одноименные релизы в Клубе

Время раздачи: с 13:00 до 23:00
[NNM-Club.me]_Scorched.Earth.2018.BluRay.1080p.DTS-HD.MA.5.1.AVC.REMUX-FraMeSToR.mkv.torrent
 Торрент: Платиновая раздача  Зарегистрирован
 
Скачать


Примагнититься
 Зарегистрирован:   07 Мар 2018 23:20:34
 Размер:   17,5 GB  (
 Рейтинг:    (Голосов: 8)
 Поблагодарили:   51
 Проверка:   Оформление проверено модератором 07 Мар 2018 23:21:50
Как cкачать  ·  Как раздать  ·  Правильно оформить  ·  Поднять ратио!  
napman1978
Стаж: 8 лет 3 мес.
Сообщений: 241
Ratio: 2,431
5.41%
с одной стороны джина карано, с другой стороны похоже лютый треш.
кто смотрел отзовитесь
kbvverde
Стаж: 4 года 10 мес.
Сообщений: 169
Ratio: 5,926
42.61%
А ничо так трешачок. Шестиструнный самурай с бюджетом и *сюжетом*
byobbyob
Стаж: 5 лет 2 мес.
Сообщений: 5
Ratio: 6,628
2.5%
Не тратьте время, даже перемотка не спасает :)

за раздачу спасибо
Показать сообщения:   
Начать новую тему   Ответить на тему    Торрент-трекер NNM-Club -> Зарубежное кино -> Фильмы в оригинале (HD, UHD, UHD-LQ) Часовой пояс: GMT + 3
Страница 1 из 1