Классический форум-трекер
canvas not supported
Нас вместе: 4 088 468

Горе-творец / The Disaster Artist (2017) BDRemux [H.264/1080p] [EN / EN, Sp Sub]


 
 
RSS
Начать новую тему   Ответить на тему    Торрент-трекер NNM-Club -> Зарубежное кино -> Фильмы в оригинале (HD, UHD, UHD-LQ)
Автор Сообщение
smaster67 ®
Модератор Видео
Покровитель талантов Uploader 300+
Стаж: 9 лет 2 мес.
Сообщений: 7030
Ratio: 224,345
Поблагодарили: 210582
100%
Горе-творец / The Disaster Artist (2017) BDRemux [H.264/1080p] [EN / EN, Sp Sub]

Производство: США / Good Universe, New Line Cinema, Point Grey Pictures, RabbitBandini Productions, Ramona Films, RatPac-Dune Entertainment
Жанр: драма, комедия, биография

Режиссер: Джеймс Франко
Актеры: Джеймс Франко, Дэйв Франко, Сет Роген, Эри Грейнор, Элисон Бри, Джеки Уивер, Пол Шир, Зак Эфрон, Джош Хатчерсон, Джун Рафаэль, Меган Маллалли, Джейсон Манцукас

Описание:
История о создании фильма «Комната» (2003), широко известного как эталон бездарного кино. Начинающий актер-красавец Грэг на актерских курсах знакомится с эксцентричным Томми Вайсо. У новых друзей совсем немного общего, кроме любви к актерству и желания самовыражаться, поэтому парочка отправляется покорять Голливуд.


Рейтинг MPAA: R (лицам до 17 лет обязательно присутствие взрослого)

Продолжительность: 01:43:50
Качество видео: BDRemux
Перевод: Отсутствует
Язык озвучки: Английский
Субтитры: английские, испанские

Видео: AVC, 1920x1080 (16:9), 34516 kbps, 23.976 fps, 0.694 bpp
Аудио №1: английский / TrueHD / 7.1 / 48 kHz / 3663 kbps /
Аудио №2: английский / AC3 / 5.1 / 48 kHz / 640 kbps /
Аудио №3: английский / AC3 / 2.0 / 48 kHz / 224 kbps /
Код: выделить все
General
Unique ID                                The.Disaster.Artist.2017.BluRay.1080p.TrueHD.7.1.AVC.REMUX-FraMeSToR\The.Disaster.Artist.2017.BluRay.1080p.TrueHD.7.1.AVC.REMUX-FraMeSToR.mkv
Format                                   : Matroska
Format version                           : Version 4 / Version 2
File size                                : 28.5 GiB
Duration                                 : 1 h 43 min
Overall bit rate mode                    : Variable
Overall bit rate                         : 39.2 Mb/s
Movie name                               : The Disaster Artist
Encoded date                             : UTC 2018-03-05 15:56:16
Writing application                      : mkvmerge v21.0.0 ('Tardigrades Will Inherit The Earth') 64-bit
Writing library                          : libebml v1.3.5 + libmatroska v1.4.8

Video
ID                                       : 1
Format                                   : AVC
Format/Info                              : Advanced Video Codec
Format profile                           : High@L4.1
Format settings, CABAC                   : Yes
Format settings, ReFrames                : 4 frames
Codec ID                                 : V_MPEG4/ISO/AVC
Duration                                 : 1 h 43 min
Bit rate mode                            : Variable
Bit rate                                 : 34.5 Mb/s
Maximum bit rate                         : 37.0 Mb/s
Width                                    : 1 920 pixels
Height                                   : 1 080 pixels
Display aspect ratio                     : 16:9
Frame rate mode                          : Constant
Frame rate                               : 23.976 (24000/1001) FPS
Color space                              : YUV
Chroma subsampling                       : 4:2:0
Bit depth                                : 8 bits
Scan type                                : Progressive
Bits/(Pixel*Frame)                       : 0.694
Stream size                              : 25.0 GiB (88%)
Default                                  : Yes
Forced                                   : No

Audio #1
ID                                       : 2
Format                                   : TrueHD
Codec ID                                 : A_TRUEHD
Duration                                 : 1 h 43 min
Bit rate mode                            : Variable
Bit rate                                 : 3 664 kb/s
Maximum bit rate                         : 4 728 kb/s
Channel(s)                               : 8 channels
Channel positions                        : Front: L C R, Side: L R, Back: L R, LFE
Sampling rate                            : 48.0 kHz
Frame rate                               : 1 200.000 FPS (40 spf)
Compression mode                         : Lossless
Stream size                              : 2.66 GiB (9%)
Title                                    : TrueHD 7.1
Language                                 : English
Default                                  : Yes
Forced                                   : No

Audio #2
ID                                       : 3
Format                                   : AC-3
Format/Info                              : Audio Coding 3
Mode extension                           : CM (complete main)
Format settings, Endianness              : Big
Codec ID                                 : A_AC3
Duration                                 : 1 h 43 min
Bit rate mode                            : Constant
Bit rate                                 : 640 kb/s
Channel(s)                               : 6 channels
Channel positions                        : Front: L C R, Side: L R, LFE
Sampling rate                            : 48.0 kHz
Frame rate                               : 31.250 FPS (1536 spf)
Compression mode                         : Lossy
Stream size                              : 475 MiB (2%)
Title                                    : AC3 5.1
Language                                 : English
Default                                  : No
Forced                                   : No

Audio #3
ID                                       : 4
Format                                   : AC-3
Format/Info                              : Audio Coding 3
Mode extension                           : CM (complete main)
Format settings, Endianness              : Big
Codec ID                                 : A_AC3
Duration                                 : 1 h 43 min
Bit rate mode                            : Constant
Bit rate                                 : 224 kb/s
Channel(s)                               : 2 channels
Channel positions                        : Front: L R
Sampling rate                            : 48.0 kHz
Frame rate                               : 31.250 FPS (1536 spf)
Compression mode                         : Lossy
Stream size                              : 166 MiB (1%)
Title                                    : Commentary by James Franco/Dave Franco/Tommy Wiseau/Greg Sestero and More
Language                                 : English
Default                                  : No
Forced                                   : No

Text #1
ID                                       : 5
Format                                   : PGS
Codec ID                                 : S_HDMV/PGS
Codec ID/Info                            : Picture based subtitle format used on BDs/HD-DVDs
Duration                                 : 1 h 42 min
Bit rate                                 : 65.6 kb/s
Count of elements                        : 4010
Stream size                              : 48.1 MiB (0%)
Title                                    : English (SDH)
Language                                 : English
Default                                  : No
Forced                                   : No

Text #2
ID                                       : 6
Format                                   : PGS
Codec ID                                 : S_HDMV/PGS
Codec ID/Info                            : Picture based subtitle format used on BDs/HD-DVDs
Duration                                 : 1 h 42 min
Bit rate                                 : 50.6 kb/s
Count of elements                        : 3739
Stream size                              : 37.1 MiB (0%)
Title                                    : Spanish (Latin American)
Language                                 : Spanish
Default                                  : No
Forced                                   : No

Menu
00:00:00.000                             : en:Chapter 01
00:05:39.673                             : en:Chapter 02
00:13:54.959                             : en:Chapter 03
00:20:18.300                             : en:Chapter 04
00:24:27.841                             : en:Chapter 05
00:30:48.764                             : en:Chapter 06
00:37:05.515                             : en:Chapter 07
00:43:16.719                             : en:Chapter 08
00:49:27.381                             : en:Chapter 09
00:56:49.948                             : en:Chapter 10
01:02:26.117                             : en:Chapter 11
01:08:24.559                             : en:Chapter 12
01:16:57.154                             : en:Chapter 13
01:21:25.797                             : en:Chapter 14
01:28:40.190                             : en:Chapter 15
01:34:53.354                             : en:Chapter 16

Скриншоты:



Все одноименные релизы в Клубе

Время раздачи: с 13:00 до 23:00
[NNM-Club.me]_The.Disaster.Artist.2017.BluRay.1080p.TrueHD.7.1.AVC.REMUX-FraMeSToR.mkv.torrent
 Торрент: Платиновая раздача  Зарегистрирован
 
Скачать


Примагнититься
 Зарегистрирован:   07 Мар 2018 22:17:10
 Размер:   28,5 GB  (
 Рейтинг:    (Голосов: 5)
 Поблагодарили:   33
 Проверка:   Оформление проверено модератором 07 Мар 2018 22:19:03
Как cкачать  ·  Как раздать  ·  Правильно оформить  ·  Поднять ратио!  
Kas Naraida
Стаж: 7 лет 2 мес.
Сообщений: 354
Ratio: 202,2
Поблагодарили: 424
100%
Откуда: Брянск
russia.gif
Братья Франко решили сняться вместе в своё фильме?

_________________
Окружающий нас мир есть отражение нас самих.
Показать сообщения:   
Начать новую тему   Ответить на тему    Торрент-трекер NNM-Club -> Зарубежное кино -> Фильмы в оригинале (HD, UHD, UHD-LQ) Часовой пояс: GMT + 3
Страница 1 из 1