Интеллигентный торрент-трекер
canvas not supported
Нас вместе: 4 104 267

Дикий / Braven (2018) BDRemux [H.264/1080p] [EN / Du Sub]


 
 
RSS
Начать новую тему   Ответить на тему    Торрент-трекер NNM-Club -> Зарубежное кино -> Фильмы в оригинале (HD)
Автор Сообщение
smaster67 ®
Модератор Видео
Покровитель талантов Uploader 300+
Стаж: 9 лет
Сообщений: 6982
Ratio: 222,118
Поблагодарили: 208754
100%
Дикий / Braven (2018) BDRemux [H.264/1080p] [EN / Du Sub]

Производство: Канада / Braven NL, Hassell Free Production, Ingenious Media, Pride of Gypsies, Tinker Productions
Жанр: боевик, драма

Режиссер: Лин Одинг
Актеры: Джейсон Момоа, Джилл Вагнер, Стивен Лэнг, Гаррет Диллахант, Занн МаКларнон, Тич Грант, Сала Бэйкер, Брендан Флетчер, Саша Россоф, Фрейзер Айтчесон, Джеймс Уорд, Ти Александр

Описание:
Лесник Джо Брейвен живет с семьей в горах на границе США и Канады. Однажды его тихую и размеренную жизнь нарушает опасная банда наркоторговцев, которая еще не знает, что эта часть лесной глуши занята. И занята не дикими животными, а сильным и бескомпромиссным человеком, ради семьи готовым на все...


Возраст: 16+ (зрителям, достигшим 16 лет)
Рейтинг MPAA: R (лицам до 17 лет обязательно присутствие взрослого)

Продолжительность: 01:33:36
Качество видео: BDRemux
Перевод: Отсутствует
Язык озвучки: Английский
Субтитры: Голландские

Видео: AVC, 1920x1080 (16:9), 19620 kbps, 23.976 fps, 0.395 bpp
Аудио: английский / DTS-HD / 5.1 / 48 kHz / 4039 kbps / 24 bit (Core: 5.1 / 48 kHz / 1509 kbps / 24 bit)
Код: выделить все
General
Unique ID
Complete name                          Braven.2018.BluRay.1080p.DTS-HD.MA.5.1.AVC.REMUX-FraMeSToR.mkv
Format                                   : Matroska
Format version                           : Version 4 / Version 2
File size                                : 15.5 GiB
Duration                                 : 1 h 33 min
Overall bit rate mode                    : Variable
Overall bit rate                         : 23.7 Mb/s
Movie name                               : Braven (2018)
Encoded date                             : UTC 2018-03-05 17:38:42
Writing application                      : mkvmerge v20.0.0 ('I Am The Sun') 64-bit
Writing library                          : libebml v1.3.5 + libmatroska v1.4.8

Video
ID                                       : 1
Format                                   : AVC
Format/Info                              : Advanced Video Codec
Format profile                           : High@L4.1
Format settings, CABAC                   : Yes
Format settings, ReFrames                : 4 frames
Codec ID                                 : V_MPEG4/ISO/AVC
Duration                                 : 1 h 33 min
Bit rate mode                            : Variable
Bit rate                                 : 19.6 Mb/s
Maximum bit rate                         : 35.0 Mb/s
Width                                    : 1 920 pixels
Height                                   : 1 080 pixels
Display aspect ratio                     : 16:9
Frame rate mode                          : Constant
Frame rate                               : 23.976 (24000/1001) FPS
Standard                                 : NTSC
Color space                              : YUV
Chroma subsampling                       : 4:2:0
Bit depth                                : 8 bits
Scan type                                : Progressive
Bits/(Pixel*Frame)                       : 0.395
Stream size                              : 12.8 GiB (83%)
Default                                  : Yes
Forced                                   : No
Color range                              : Limited
Color primaries                          : BT.709
Transfer characteristics                 : BT.709
Matrix coefficients                      : BT.709

Audio
ID                                       : 2
Format                                   : DTS
Format/Info                              : Digital Theater Systems
Format profile                           : MA / Core
Mode                                     : 16
Format settings, Endianness              : Big
Codec ID                                 : A_DTS
Duration                                 : 1 h 33 min
Bit rate mode                            : Variable / Constant
Bit rate                                 : 4 039 kb/s / 1 509 kb/s
Channel(s)                               : 6 channels
Channel positions                        : Front: L C R, Side: L R, LFE
Sampling rate                            : 48.0 kHz
Frame rate                               : 93.750 FPS (512 spf)
Bit depth                                : 24 bits
Compression mode                         : Lossless / Lossy
Stream size                              : 2.64 GiB (17%)
Title                                    : DTS-HD MA 5.1
Language                                 : English
Default                                  : Yes
Forced                                   : No

Text
ID                                       : 3
Format                                   : PGS
Codec ID                                 : S_HDMV/PGS
Codec ID/Info                            : Picture based subtitle format used on BDs/HD-DVDs
Duration                                 : 1 h 24 min
Bit rate                                 : 12.5 kb/s
Count of elements                        : 818
Stream size                              : 7.52 MiB (0%)
Title                                    : Dutch
Language                                 : Dutch
Default                                  : No
Forced                                   : No

Menu
00:00:00.000                             : en:Chapter 1
00:14:01.591                             : en:Chapter 2
00:28:18.572                             : en:Chapter 3
00:41:32.990                             : en:Chapter 4
00:50:55.302                             : en:Chapter 5
01:03:18.211                             : en:Chapter 6
01:19:35.562                             : en:Chapter 7
01:29:20.313                             : en:Chapter 8

Скриншоты:



Все одноименные релизы в Клубе

Время раздачи: с 13:00 до 23:00
[NNM-Club.me]_Braven.2018.BluRay.1080p.DTS-HD.MA.5.1.AVC.REMUX-FraMeSToR.mkv.torrent
 Торрент: Платиновая раздача  Зарегистрирован
 
Скачать


Примагнититься
 Зарегистрирован:   07 Мар 2018 19:18:39
 Размер:   15,5 GB  (
 Рейтинг:   4,9 (Голосов: 10)
 Поблагодарили:   47
 Проверка:   Оформление проверено модератором 07 Мар 2018 19:19:47
Как cкачать  ·  Как раздать  ·  Правильно оформить  ·  Поднять ратио!  
Показать сообщения:   
Начать новую тему   Ответить на тему    Торрент-трекер NNM-Club -> Зарубежное кино -> Фильмы в оригинале (HD) Часовой пояс: GMT + 3
Страница 1 из 1