Интеллигентный торрент-трекер
canvas not supported
Нас вместе: 4 104 263

Муза / Muse (2017) BDRip [H.264/1080p] [EN]


 
 
RSS
Начать новую тему   Ответить на тему    Торрент-трекер NNM-Club -> Зарубежное кино -> Фильмы в оригинале (HD)
Автор Сообщение
smaster67 ®
Модератор Видео
Покровитель талантов Uploader 300+
Стаж: 9 лет
Сообщений: 6982
Ratio: 222,117
Поблагодарили: 208754
100%
Муза / Muse (2017) BDRip [H.264/1080p] [EN]

Производство: Испания, Ирландия, Бельгия, Франция / Castelao Pictures, Fantastic Films, Filmax Entertainment, Frakas Productions
Жанр: ужасы, фантастика, триллер

Режиссер: Жауме Балагуэро
Актеры: Кристофер Ллойд, Леонор Уотлинг, Джоэнн Уэлли, Франка Потенте, Мануэла Веллес, Ана Улару, Эллиот Кауэн, Еннис Чун-Ян, Фрэнк Кэннон, Киаран МакГлинн, Ив Коннолли

Описание:
Профессор литературы Самуэль Саломон год назад ушел с работы после трагической смерти подруги. Он страдает от повторяющегося ночного кошмара, в котором видит женщину, зверски убиваемую при странном ритуале. Неожиданно ту же самую женщину, которая появляется каждую ночь в его снах, находят мертвой при тех же самых обстоятельствах. Самуэль пробирается на место преступления и там встречает Рэйчел, которой тоже приснилось это убийство. Пытаясь сделать всё возможное, чтобы разгадать личность таинственной женщины, они попадут в страшный мир, которым управляют фигуры, вдохновляющие художников на протяжении веков — музы.



Продолжительность: 01:47:30
Качество видео: BDRip
Перевод: Отсутствует
Язык озвучки: Английский
Субтитры: Отсутствуют

Видео: AVC, 1920x800 (2.40:1), 12710 kbps, 24 fps, 0.345 bpp
Аудио: английский / DTS / 5.1 / 48 kHz / 1509 kbps / 24 bit
Код: выделить все
General
Unique ID
Complete name                            Muse.2018.1080p.Bluray.X264-EVO\Muse.2018.1080p.Bluray.X264-EVO.mkv
Format                                   : Matroska
Format version                           : Version 4 / Version 2
File size                                : 10.4 GiB
Duration                                 : 1 h 47 min
Overall bit rate                         : 13.9 Mb/s
Encoded date                             : UTC 2018-03-06 17:08:16
Writing application                      : mkvmerge v6.7.0 ('Back to the Ground') 64bit built on Jan  8 2014 15:10:52
Writing library                          : libebml v1.3.0 + libmatroska v1.4.1

Video
ID                                       : 1
Format                                   : AVC
Format/Info                              : Advanced Video Codec
Format profile                           : High@L4.1
Format settings, CABAC                   : Yes
Format settings, ReFrames                : 4 frames
Codec ID                                 : V_MPEG4/ISO/AVC
Duration                                 : 1 h 47 min
Bit rate                                 : 12.7 Mb/s
Width                                    : 1 920 pixels
Height                                   : 800 pixels
Display aspect ratio                     : 2.40:1
Frame rate mode                          : Constant
Frame rate                               : 24.000 FPS
Color space                              : YUV
Chroma subsampling                       : 4:2:0
Bit depth                                : 8 bits
Scan type                                : Progressive
Bits/(Pixel*Frame)                       : 0.345
Stream size                              : 9.11 GiB (87%)
Writing library                          : x264 core 130 r2273 b3065e6
Encoding settings                        : cabac=1 / ref=1 / deblock=1:0:0 / analyse=0x3:0x113 / me=hex / subme=2 / psy=1 / psy_rd=1.00:0.00 / mixed_ref=0 / me_range=16 / chroma_me=1 / trellis=0 / 8x8dct=1 / cqm=0 / deadzone=21,11 / fast_pskip=1 / chroma_qp_offset=0 / threads=6 / lookahead_threads=2 / sliced_threads=0 / nr=0 / decimate=1 / interlaced=0 / bluray_compat=0 / constrained_intra=0 / bframes=3 / b_pyramid=2 / b_adapt=1 / b_bias=0 / direct=1 / weightb=1 / open_gop=0 / weightp=1 / keyint=240 / keyint_min=24 / scenecut=40 / intra_refresh=0 / rc_lookahead=10 / rc=abr / mbtree=1 / bitrate=12710 / ratetol=1.0 / qcomp=0.60 / qpmin=0 / qpmax=69 / qpstep=4 / vbv_maxrate=62500 / vbv_bufsize=78125 / nal_hrd=none / ip_ratio=1.40 / aq=1:1.00
Language                                 : English
Default                                  : Yes
Forced                                   : No
Color range                              : Limited
Color primaries                          : BT.709
Transfer characteristics                 : BT.709
Matrix coefficients                      : BT.709

Audio
ID                                       : 2
Format                                   : DTS
Format/Info                              : Digital Theater Systems
Mode                                     : 16
Format settings, Endianness              : Big
Codec ID                                 : A_DTS
Duration                                 : 1 h 47 min
Bit rate mode                            : Constant
Bit rate                                 : 1 509 kb/s
Channel(s)                               : 6 channels
Channel positions                        : Front: L C R, Side: L R, LFE
Sampling rate                            : 48.0 kHz
Frame rate                               : 93.750 FPS (512 spf)
Bit depth                                : 24 bits
Compression mode                         : Lossy
Stream size                              : 1.13 GiB (11%)
Language                                 : English
Default                                  : Yes
Forced                                   : No

Menu
00:00:00.000                             : en:Chapter 1
00:14:04.375                             : en:Chapter 2
00:25:49.750                             : en:Chapter 3
00:39:30.208                             : en:Chapter 4
00:52:09.291                             : en:Chapter 5
01:04:45.375                             : en:Chapter 6
01:18:08.291                             : en:Chapter 7
01:27:42.375                             : en:Chapter 8

Скриншоты:



Все одноименные релизы в Клубе

Время раздачи: с 13:00 до 23:00
[NNM-Club.me]_Muse.2018.1080p.Bluray.X264-EVO.mkv.torrent
 Торрент: Платиновая раздача  Зарегистрирован
 
Скачать


Примагнититься
 Зарегистрирован:   06 Мар 2018 22:06:41
 Размер:   10,4 GB  (
 Рейтинг:    (Голосов: 6)
 Поблагодарили:   57
 Проверка:   Оформление проверено модератором 06 Мар 2018 22:08:17
Как cкачать  ·  Как раздать  ·  Правильно оформить  ·  Поднять ратио!  
Показать сообщения:   
Начать новую тему   Ответить на тему    Торрент-трекер NNM-Club -> Зарубежное кино -> Фильмы в оригинале (HD) Часовой пояс: GMT + 3
Страница 1 из 1