Интеллигентный торрент-трекер
canvas not supported
Нас вместе: 4 105 061

Колесо чудес / Wonder Wheel (2017) BDRemux [H.264/1080p] [EN / EN Sub]


 
 
RSS
Начать новую тему   Ответить на тему    Торрент-трекер NNM-Club -> Зарубежное кино -> Фильмы в оригинале (HD)
Автор Сообщение
smaster67 ®
Модератор Видео
Покровитель талантов Uploader 300+
Стаж: 9 лет
Сообщений: 6981
Ratio: 221,941
Поблагодарили: 208724
100%
Колесо чудес / Wonder Wheel (2017) BDRemux [H.264/1080p] [EN / EN Sub]

Производство: США / Amazon Studios, Gravier Productions, Perdido Productions
Жанр: драма

Режиссер: Вуди Аллен
Актеры: Джеймс Белуши, Джуно Темпл, Джастин Тимберлейк, Кейт Уинслет, Макс Казелла, Джек Гор, Дэвид Крамхолц, Роберт С. Кирк, Томми Нохилли, Тони Сирико, Стив Ширрипа, Джон Думаньян

Описание:
История страсти, жестокости и предательства, рассказывающая о четырех героях, чьи судьбы переплелись среди бурной жизни знаменитого парка развлечений. Действие разворачивается на живописном Кони Айленде в Нью-Йорке.


Возраст: 16+ (зрителям, достигшим 16 лет)
Рейтинг MPAA: PG-13 (детям до 13 лет просмотр нежелателен)

Продолжительность: 01:41:01
Качество видео: BDRemux
Перевод: Отсутствует
Язык озвучки: Английский
Субтитры: английские

Видео: AVC, 1920x1080 (16:9), 35754 kbps, 23.976 fps, 0.719 bpp
Аудио: английский / DTS-HD / 5.1 / 48 kHz / 3326 kbps / 24 bit (Core: 5.1 / 48 kHz / 1509 kbps / 24 bit)
Код: выделить все
General
Unique ID                             Wonder.Wheel.2017.BluRay.1080p.DTS-HD.MA.5.1.AVC.REMUX-FraMeSToR.mkv
Format                                   : Matroska
Format version                           : Version 4 / Version 2
File size                                : 27.6 GiB
Duration                                 : 1 h 41 min
Overall bit rate mode                    : Variable
Overall bit rate                         : 39.1 Mb/s
Movie name                               : Wonder Wheel
Encoded date                             : UTC 2018-02-27 17:20:28
Writing application                      : mkvmerge v21.0.0 ('Tardigrades Will Inherit The Earth') 64-bit
Writing library                          : libebml v1.3.5 + libmatroska v1.4.8

Video
ID                                       : 1
Format                                   : AVC
Format/Info                              : Advanced Video Codec
Format profile                           : High@L4.1
Format settings, CABAC                   : Yes
Format settings, ReFrames                : 4 frames
Codec ID                                 : V_MPEG4/ISO/AVC
Duration                                 : 1 h 41 min
Bit rate mode                            : Variable
Bit rate                                 : 35.8 Mb/s
Maximum bit rate                         : 39.0 Mb/s
Width                                    : 1 920 pixels
Height                                   : 1 080 pixels
Display aspect ratio                     : 16:9
Frame rate mode                          : Constant
Frame rate                               : 23.976 (24000/1001) FPS
Color space                              : YUV
Chroma subsampling                       : 4:2:0
Bit depth                                : 8 bits
Scan type                                : Progressive
Bits/(Pixel*Frame)                       : 0.719
Stream size                              : 25.2 GiB (91%)
Default                                  : Yes
Forced                                   : No

Audio
ID                                       : 2
Format                                   : DTS
Format/Info                              : Digital Theater Systems
Format profile                           : MA / Core
Mode                                     : 16
Format settings, Endianness              : Big
Codec ID                                 : A_DTS
Duration                                 : 1 h 41 min
Bit rate mode                            : Variable / Constant
Bit rate                                 : 3 327 kb/s / 1 509 kb/s
Channel(s)                               : 6 channels
Channel positions                        : Front: L C R, Side: L R, LFE
Sampling rate                            : 48.0 kHz
Frame rate                               : 93.750 FPS (512 spf)
Bit depth                                : 24 bits
Compression mode                         : Lossless / Lossy
Stream size                              : 2.35 GiB (8%)
Title                                    : DTS-HD MA 5.1
Language                                 : English
Default                                  : Yes
Forced                                   : No

Text
ID                                       : 3
Format                                   : PGS
Codec ID                                 : S_HDMV/PGS
Codec ID/Info                            : Picture based subtitle format used on BDs/HD-DVDs
Duration                                 : 1 h 39 min
Bit rate                                 : 62.9 kb/s
Count of elements                        : 4198
Stream size                              : 44.8 MiB (0%)
Title                                    : English (SDH)
Language                                 : English
Default                                  : No
Forced                                   : No

Menu
00:00:00.000                             : en:Chapter 01
00:06:07.450                             : en:Chapter 02
00:12:22.367                             : en:Chapter 03
00:17:53.322                             : en:Chapter 04
00:23:46.425                             : en:Chapter 05
00:30:24.072                             : en:Chapter 06
00:35:28.543                             : en:Chapter 07
00:40:06.904                             : en:Chapter 08
00:46:12.353                             : en:Chapter 09
00:51:53.736                             : en:Chapter 10
00:58:04.898                             : en:Chapter 11
01:01:55.086                             : en:Chapter 12
01:05:18.498                             : en:Chapter 13
01:09:38.466                             : en:Chapter 14
01:12:15.039                             : en:Chapter 15
01:17:58.841                             : en:Chapter 16
01:24:03.747                             : en:Chapter 17
01:28:39.189                             : en:Chapter 18
01:35:05.283                             : en:Chapter 19
01:37:57.288                             : en:Chapter 20

Скриншоты:



Все одноименные релизы в Клубе

Время раздачи: с 13:00 до 23:00
[NNM-Club.me]_Wonder.Wheel.2017.BluRay.1080p.DTS-HD.MA.5.1.AVC.REMUX-FraMeSToR.mkv.torrent
 Торрент: Платиновая раздача  Зарегистрирован
 
Скачать


Примагнититься
 Зарегистрирован:   06 Мар 2018 11:00:28
 Размер:   27,6 GB  (
 Рейтинг:    (Голосов: 4)
 Поблагодарили:   28
 Проверка:   Оформление проверено модератором 06 Мар 2018 11:01:21
Как cкачать  ·  Как раздать  ·  Правильно оформить  ·  Поднять ратио!  
Показать сообщения:   
Начать новую тему   Ответить на тему    Торрент-трекер NNM-Club -> Зарубежное кино -> Фильмы в оригинале (HD) Часовой пояс: GMT + 3
Страница 1 из 1