Интеллигентный торрент-трекер
canvas not supported
Нас вместе: 4 122 342

Проект Флорида / The Florida Project (2017) BDRemux [H.264/1080p] [EN / EN, Sp Sub]


 
 
RSS
Начать новую тему   Ответить на тему    Торрент-трекер NNM-Club -> Зарубежное кино -> Фильмы в оригинале (HD)
Автор Сообщение
smaster67 ®
Модератор Видео
Покровитель талантов Uploader 300+
Стаж: 8 лет 10 мес.
Сообщений: 6939
Ratio: 218,417
Поблагодарили: 206834
100%
Проект Флорида / The Florida Project (2017) BDRemux [H.264/1080p] [EN / EN, Sp Sub]

Производство: США / Cre Film, Freestyle Picture Company, June Pictures, Sweet Tomato Films
Жанр: драма

Режиссер: Шон Бэйкер
Актеры: Уиллем Дефо, Макон Блэр, Джим Р. Коулмэн, Гари Б. Гросс, Калеб Лэндри Джонс, Терри Аллен Джонс, Сэнди Кэйн, Соня МакКартер, Эйден Малик, Бруклин Принс

Описание:
Это лето Муни и ее друзья не забудут. Каждый день они, переполненные энергией и пренебрежением к взрослым, носятся по волшебному миру одноэтажной Америки на подступах к Диснейленду. Помешать им могут только родители или строгий надзиратель.


Рейтинг MPAA: R (лицам до 17 лет обязательно присутствие взрослого)

Продолжительность: 01:51:36
Качество видео: BDRemux
Перевод: Отсутствует
Язык озвучки: Английский
Субтитры: английские, испанские

Видео: AVC, 1920x1080 (16:9), 31483 kbps, 23.976 fps, 0.633 bpp
Аудио: английский / DTS-HD / 5.1 / 48 kHz / 3219 kbps / 24 bit (Core: 5.1 / 48 kHz / 1509 kbps / 24 bit)
Код: выделить все
General
Unique ID                               The.Florida.Project.2017.1080p.BluRay.REMUX.AVC.DTS-HD.MA.5.1 [NNM-Club.me].mkv
Format                                   : Matroska
Format version                           : Version 4 / Version 2
File size                                : 27.1 GiB
Duration                                 : 1 h 51 min
Overall bit rate mode                    : Variable
Overall bit rate                         : 34.8 Mb/s
Movie name                               : The Florida Project (2017)
Encoded date                             : UTC 2018-02-14 03:02:28
Writing application                      : mkvmerge v20.0.0 ('I Am The Sun') 64-bit
Writing library                          : libebml v1.3.5 + libmatroska v1.4.8

Video
ID                                       : 1
Format                                   : AVC
Format/Info                              : Advanced Video Codec
Format profile                           : High@L4.1
Format settings, CABAC                   : Yes
Format settings, ReFrames                : 4 frames
Codec ID                                 : V_MPEG4/ISO/AVC
Duration                                 : 1 h 51 min
Bit rate mode                            : Variable
Bit rate                                 : 31.5 Mb/s
Maximum bit rate                         : 37.0 Mb/s
Width                                    : 1 920 pixels
Height                                   : 1 080 pixels
Display aspect ratio                     : 16:9
Frame rate mode                          : Constant
Frame rate                               : 23.976 (24000/1001) FPS
Color space                              : YUV
Chroma subsampling                       : 4:2:0
Bit depth                                : 8 bits
Scan type                                : Progressive
Bits/(Pixel*Frame)                       : 0.633
Stream size                              : 24.5 GiB (90%)
Title                                    : MPEG-4 AVC Video / 31500 kbps / 1080p / 23.976 fps / 16:9 / High Profile 4.1
Language                                 : English
Default                                  : Yes
Forced                                   : No

Audio
ID                                       : 2
Format                                   : DTS
Format/Info                              : Digital Theater Systems
Format profile                           : MA / Core
Mode                                     : 16
Format settings, Endianness              : Big
Codec ID                                 : A_DTS
Duration                                 : 1 h 51 min
Bit rate mode                            : Variable / Constant
Bit rate                                 : 3 219 kb/s / 1 509 kb/s
Channel(s)                               : 6 channels
Channel positions                        : Front: L C R, Side: L R, LFE
Sampling rate                            : 48.0 kHz
Frame rate                               : 93.750 FPS (512 spf)
Bit depth                                : 24 bits
Compression mode                         : Lossless / Lossy
Stream size                              : 2.51 GiB (9%)
Title                                    : DTS-HD Master Audio / 5.1 / 48 kHz / 3219 kbps / 24-bit
Language                                 : English
Default                                  : Yes
Forced                                   : No

Text #1
ID                                       : 3
Format                                   : PGS
Codec ID                                 : S_HDMV/PGS
Codec ID/Info                            : Picture based subtitle format used on BDs/HD-DVDs
Duration                                 : 1 h 3 min
Bit rate                                 : 844 b/s
Count of elements                        : 50
Stream size                              : 392 KiB (0%)
Title                                    : Forced only
Language                                 : English
Default                                  : Yes
Forced                                   : No

Text #2
ID                                       : 4
Format                                   : PGS
Codec ID                                 : S_HDMV/PGS
Codec ID/Info                            : Picture based subtitle format used on BDs/HD-DVDs
Duration                                 : 1 h 50 min
Bit rate                                 : 51.9 kb/s
Count of elements                        : 3522
Stream size                              : 41.1 MiB (0%)
Title                                    : SDH
Language                                 : English
Default                                  : No
Forced                                   : No

Text #3
ID                                       : 5
Format                                   : PGS
Codec ID                                 : S_HDMV/PGS
Codec ID/Info                            : Picture based subtitle format used on BDs/HD-DVDs
Duration                                 : 1 h 46 min
Bit rate                                 : 42.3 kb/s
Count of elements                        : 2946
Stream size                              : 32.4 MiB (0%)
Title                                    : Latin American
Language                                 : Spanish
Default                                  : No
Forced                                   : No

Menu
00:00:00.000                             : en:"Freshies at The Future!"
00:07:16.686                             : en:"Toalla de Papel, por favor!"
00:13:02.657                             : en:Jancey Joins The Gang
00:21:22.531                             : en:"Magic" Mix-Up
00:25:16.390                             : en:Ice Cream, You Scream
00:32:04.005                             : en:The Halley Hustle
00:38:48.868                             : en:A Watchful Eye
00:44:28.207                             : en:"The Abandons"
00:51:27.543                             : en:"Where's Scooty?"
00:56:41.648                             : en:Bobby & Jack on ice
01:04:28.698                             : en:Chasing Rainbows
01:11:19.108                             : en:Jancey's Birthday Surprise
01:19:07.451                             : en:Mother / Daughter Time
01:28:33.224                             : en:Unwelcome Guests
01:36:10.932                             : en:"Better Than A Cruise"
01:44:52.411                             : en:Fleeing to Fantasy Land

Скриншоты:



Все одноименные релизы в Клубе

Время раздачи: с 13:00 до 23:00
 Торрент: Платиновая раздача  Зарегистрирован
 
Скачать


Примагнититься
 Зарегистрирован:   14 Фев 2018 13:09:00
 Размер:   27,1 GB  (
 Рейтинг:    (Голосов: 3)
 Поблагодарили:   30
 Проверка:   Оформление проверено модератором 14 Фев 2018 13:09:51
Как cкачать  ·  Как раздать  ·  Правильно оформить  ·  Поднять ратио!  
Булат​_80ру​с​
Стаж: 5 лет 9 мес.
Сообщений: 249
Ratio: 28,359
Раздал: 3,417 TB
100%
Откуда: Агинское
russia.gif
Завтра отпишусь о фильме и своих навыках понимания английской речи. :смущение:

_________________
Булат​_80ру​с​
Стаж: 5 лет 9 мес.
Сообщений: 249
Ratio: 28,359
Раздал: 3,417 TB
100%
Откуда: Агинское
russia.gif
Сначала ничего не понимал (сюжет), в конце понял всё и разочаровался. Концовка смазанная.

_________________
Показать сообщения:   
Начать новую тему   Ответить на тему    Торрент-трекер NNM-Club -> Зарубежное кино -> Фильмы в оригинале (HD) Часовой пояс: GMT + 3
Страница 1 из 1