Интеллигентный торрент-трекер
canvas not supported
Нас вместе: 4 189 778

Баллада о Лефти Брауне / The Ballad of Lefty Brown (2017) BDRip [H.264/1080p] [EN]


 
 
RSS
Начать новую тему   Ответить на тему    Торрент-трекер NNM-Club -> Зарубежное кино -> Фильмы в оригинале (HD)
Автор Сообщение
smaster67 ®
Модератор Видео
Покровитель талантов Uploader 300+
Стаж: 8 лет 7 мес.
Сообщений: 6872
Ratio: 213,707
Поблагодарили: 203656
100%
Баллада о Лефти Брауне / The Ballad of Lefty Brown (2017) BDRip [H.264/1080p] [EN]

Производство: США / Higher Content, Om Films, Armian Pictures
Жанр: вестерн

Режиссер: Джаред Моше
Актеры: Питер Фонда, Билл Пуллман, Кэти Бейкер, Джеймс Кэвизел, Томми Флэнаган, Джозеф Андерсон, Адам О’Берн, Дюл Фарнс, Диего Джозеф

Описание:
Пожилые приятели Лефти Браун и Эдди Джонсон всю свою жизнь работали вместе. Внезапное убийство Эдди вынуждают Лефти выйти из тени своего партнёра, теперь ему придётся противостоять уродливым реалиям за границами правосудия.


Рейтинг MPAA: R (лицам до 17 лет обязательно присутствие взрослого)

Продолжительность: 01:51:43
Качество видео: BDRip
Перевод: Отсутствует
Язык озвучки: Английский
Субтитры: Отсутствуют

Видео: AVC, 1920x800 (2.40:1), 16000 kbps, 23.976 fps, 0.434 bpp
Аудио: английский / DTS / 5.1 / 48 kHz / 1509 kbps / 24 bit
Код: выделить все
General
Unique ID                                The.Ballad.of.Lefty.Brown.2017.1080p.BluRay.x264.DTS-MT.mkv
Format                                   : Matroska
Format version                           : Version 4 / Version 2
File size                                : 13.7 GiB
Duration                                 : 1 h 51 min
Overall bit rate                         : 17.5 Mb/s
Movie name                               : The.Ballad.of.Lefty.Brown.2017.1080p.BluRay.x264.DTS-MT
Encoded date                             : UTC 2018-02-08 10:50:07
Writing application                      : mkvmerge v20.0.0 ('I Am The Sun') 64-bit
Writing library                          : libebml v1.3.5 + libmatroska v1.4.8
Cover                                    : Yes
Attachments                              : cover_land.jpg / small_cover.jpg / small_cover_land.jpg / cover.jpg

Video
ID                                       : 1
Format                                   : AVC
Format/Info                              : Advanced Video Codec
Format profile                           : High@L4.1
Format settings, CABAC                   : Yes
Format settings, ReFrames                : 5 frames
Codec ID                                 : V_MPEG4/ISO/AVC
Duration                                 : 1 h 51 min
Bit rate                                 : 16.0 Mb/s
Width                                    : 1 920 pixels
Height                                   : 800 pixels
Display aspect ratio                     : 2.40:1
Frame rate mode                          : Constant
Frame rate                               : 23.976 (24000/1001) FPS
Color space                              : YUV
Chroma subsampling                       : 4:2:0
Bit depth                                : 8 bits
Scan type                                : Progressive
Bits/(Pixel*Frame)                       : 0.434
Stream size                              : 12.5 GiB (91%)
Title                                    : The.Ballad.of.Lefty.Brown.2017.1080p.BluRay.x264.DTS-MT
Writing library                          : x264 core 142 r2431+42 c69a006 tMod [8-bit@4:2:0 X86]
Encoding settings                        : cabac=1 / ref=5 / deblock=1:-3:-3 / analyse=0x3:0x133 / me=umh / subme=10 / psy=1 / fade_compensate=0.00 / psy_rd=1.00:0.00 / mixed_ref=1 / me_range=48 / chroma_me=1 / trellis=2 / 8x8dct=1 / cqm=0 / deadzone=21,11 / fast_pskip=0 / chroma_qp_offset=-2 / threads=12 / lookahead_threads=1 / sliced_threads=0 / nr=0 / decimate=0 / interlaced=0 / bluray_compat=0 / constrained_intra=0 / fgo=0 / bframes=6 / b_pyramid=2 / b_adapt=2 / b_bias=0 / direct=3 / weightb=0 / open_gop=0 / weightp=2 / keyint=230 / keyint_min=22 / scenecut=40 / intra_refresh=0 / rc_lookahead=60 / rc=2pass / mbtree=1 / bitrate=16000 / ratetol=1.0 / qcomp=0.60 / qpmin=0:0:0 / qpmax=69:69:69 / qpstep=4 / cplxblur=20.0 / qblur=0.5 / vbv_maxrate=50000 / vbv_bufsize=50000 / nal_hrd=none / filler=0 / ip_ratio=1.40 / aq=1:1.00 / aq-sensitivity=10.00 / aq-factor=1.00:1.00:1.00 / aq2=0 / aq3=0
Language                                 : English
Default                                  : Yes
Forced                                   : No

Audio
ID                                       : 2
Format                                   : DTS
Format/Info                              : Digital Theater Systems
Mode                                     : 16
Format settings, Endianness              : Big
Codec ID                                 : A_DTS
Duration                                 : 1 h 51 min
Bit rate mode                            : Constant
Bit rate                                 : 1 509 kb/s
Channel(s)                               : 6 channels
Channel positions                        : Front: L C R, Side: L R, LFE
Sampling rate                            : 48.0 kHz
Frame rate                               : 93.750 FPS (512 spf)
Bit depth                                : 24 bits
Compression mode                         : Lossy
Stream size                              : 1.18 GiB (9%)
Title                                    : The.Ballad.of.Lefty.Brown.2017.1080p.BluRay.x264.DTS-MT
Language                                 : English
Default                                  : Yes
Forced                                   : No

Скриншоты:



Все одноименные релизы в Клубе

Время раздачи: с 13:00 до 23:00
[NNM-Club.me]_The.Ballad.of.Lefty.Brown.2017.1080p.BluRay.x264.DTS-MT.mkv.torrent
 Торрент: Золотая раздача  Зарегистрирован
 
Зарегистрируйтесь и скачайте торрент!
68,5 KB

Примагнититься
 Зарегистрирован:   13 Фев 2018 12:39:20
 Размер:   13,7 GB  (
 Рейтинг:    (Голосов: 1)
 Поблагодарили:   24
 Проверка:   Оформление проверено модератором 13 Фев 2018 12:42:14
Как cкачать  ·  Как раздать  ·  Правильно оформить  ·  Поднять ратио!  
Показать сообщения:   
Начать новую тему   Ответить на тему    Торрент-трекер NNM-Club -> Зарубежное кино -> Фильмы в оригинале (HD) Часовой пояс: GMT + 3
Страница 1 из 1