Интеллигентный торрент-трекер
canvas not supported
Нас вместе: 4 122 342

Баллада о Лефти Брауне / The Ballad of Lefty Brown (2017) BDRemux [H.264/1080p] [EN / EN, Sp Sub]


 
 
RSS
Начать новую тему   Ответить на тему    Торрент-трекер NNM-Club -> Зарубежное кино -> Фильмы в оригинале (HD)
Автор Сообщение
smaster67 ®
Модератор Видео
Покровитель талантов Uploader 300+
Стаж: 8 лет 10 мес.
Сообщений: 6939
Ratio: 218,418
Поблагодарили: 206834
100%
Баллада о Лефти Брауне / The Ballad of Lefty Brown (2017) BDRemux [H.264/1080p] [EN / EN, Sp Sub]

Производство: США / Higher Content, Om Films, Armian Pictures
Жанр: вестерн

Режиссер: Джаред Моше
Актеры: Питер Фонда, Билл Пуллман, Кэти Бейкер, Джеймс Кэвизел, Томми Флэнаган, Джозеф Андерсон, Адам О’Берн, Дюл Фарнс, Диего Джозеф

Описание:
Пожилые приятели Лефти Браун и Эдди Джонсон всю свою жизнь работали вместе. Внезапное убийство Эдди вынуждают Лефти выйти из тени своего партнёра, теперь ему придётся противостоять уродливым реалиям за границами правосудия.


Рейтинг MPAA: R (лицам до 17 лет обязательно присутствие взрослого)

Продолжительность: 01:51:43
Качество видео: BDRemux
Перевод: Отсутствует
Язык озвучки: Английский
Субтитры: английские, испанские

Видео: AVC, 1920x1080 (16:9), 34673 kbps, 23.976 fps, 0.697 bpp
Аудио №1: английский / DTS-HD / 5.1 / 48 kHz / 3566 kbps / 24 bit (Core: 5.1 / 48 kHz / 1509 kbps / 24 bit)
Аудио №2: английский / AC3 / 2.0 / 48 kHz / 192 kbps /
Код: выделить все
General
Unique ID                              The.Ballad.of.Lefty.Brown.2017.BluRay.1080p.DTS-HD.MA.5.1.AVC.REMUX-FraMeSToR.mkv
Format                                   : Matroska
Format version                           : Version 4 / Version 2
File size                                : 30.0 GiB
Duration                                 : 1 h 51 min
Overall bit rate mode                    : Variable
Overall bit rate                         : 38.5 Mb/s
Movie name                               : The Ballad of Lefty Brown
Encoded date                             : UTC 2018-02-06 17:25:55
Writing application                      : mkvmerge v20.0.0 ('I Am The Sun') 64-bit
Writing library                          : libebml v1.3.5 + libmatroska v1.4.8

Video
ID                                       : 1
Format                                   : AVC
Format/Info                              : Advanced Video Codec
Format profile                           : High@L4.1
Format settings, CABAC                   : Yes
Format settings, ReFrames                : 4 frames
Codec ID                                 : V_MPEG4/ISO/AVC
Duration                                 : 1 h 51 min
Bit rate mode                            : Variable
Bit rate                                 : 34.7 Mb/s
Maximum bit rate                         : 37.0 Mb/s
Width                                    : 1 920 pixels
Height                                   : 1 080 pixels
Display aspect ratio                     : 16:9
Frame rate mode                          : Constant
Frame rate                               : 23.976 (24000/1001) FPS
Color space                              : YUV
Chroma subsampling                       : 4:2:0
Bit depth                                : 8 bits
Scan type                                : Progressive
Bits/(Pixel*Frame)                       : 0.697
Stream size                              : 27.1 GiB (90%)
Default                                  : Yes
Forced                                   : No

Audio #1
ID                                       : 2
Format                                   : DTS
Format/Info                              : Digital Theater Systems
Format profile                           : MA / Core
Mode                                     : 16
Format settings, Endianness              : Big
Codec ID                                 : A_DTS
Duration                                 : 1 h 51 min
Bit rate mode                            : Variable / Constant
Bit rate                                 : 3 566 kb/s / 1 509 kb/s
Channel(s)                               : 6 channels
Channel positions                        : Front: L C R, Side: L R, LFE
Sampling rate                            : 48.0 kHz
Frame rate                               : 93.750 FPS (512 spf)
Bit depth                                : 24 bits
Compression mode                         : Lossless / Lossy
Stream size                              : 2.78 GiB (9%)
Title                                    : DTS-HD MA 5.1
Language                                 : English
Default                                  : Yes
Forced                                   : No

Audio #2
ID                                       : 3
Format                                   : AC-3
Format/Info                              : Audio Coding 3
Mode extension                           : CM (complete main)
Format settings, Endianness              : Big
Codec ID                                 : A_AC3
Duration                                 : 1 h 51 min
Bit rate mode                            : Constant
Bit rate                                 : 192 kb/s
Channel(s)                               : 2 channels
Channel positions                        : Front: L R
Sampling rate                            : 48.0 kHz
Frame rate                               : 31.250 FPS (1536 spf)
Compression mode                         : Lossy
Stream size                              : 153 MiB (0%)
Title                                    : Commentary by Jared Moshe/Bill Pullman
Language                                 : English
Default                                  : No
Forced                                   : No

Text #1
ID                                       : 4
Format                                   : PGS
Codec ID                                 : S_HDMV/PGS
Codec ID/Info                            : Picture based subtitle format used on BDs/HD-DVDs
Duration                                 : 1 h 51 min
Bit rate                                 : 33.5 kb/s
Count of elements                        : 2697
Stream size                              : 26.6 MiB (0%)
Title                                    : English (SDH)
Language                                 : English
Default                                  : No
Forced                                   : No

Text #2
ID                                       : 5
Format                                   : PGS
Codec ID                                 : S_HDMV/PGS
Codec ID/Info                            : Picture based subtitle format used on BDs/HD-DVDs
Duration                                 : 1 h 50 min
Bit rate                                 : 27.1 kb/s
Count of elements                        : 2161
Stream size                              : 21.4 MiB (0%)
Title                                    : Spanish (Latin American)
Language                                 : English
Default                                  : No
Forced                                   : No

Menu
00:00:00.000                             : en:Chapter 01
00:07:42.379                             : en:Chapter 02
00:15:50.825                             : en:Chapter 03
00:21:33.000                             : en:Chapter 04
00:28:02.931                             : en:Chapter 05
00:36:33.024                             : en:Chapter 06
00:40:25.006                             : en:Chapter 07
00:49:09.738                             : en:Chapter 08
00:59:03.873                             : en:Chapter 09
01:05:58.913                             : en:Chapter 10
01:14:05.357                             : en:Chapter 11
01:21:15.537                             : en:Chapter 12
01:26:11.833                             : en:Chapter 13
01:29:32.784                             : en:Chapter 14
01:34:18.027                             : en:Chapter 15
01:41:33.879                             : en:Chapter 16

Скриншоты:



Все одноименные релизы в Клубе

Время раздачи: с 13:00 до 23:00
 Торрент: Платиновая раздача  Зарегистрирован
 
Скачать


Примагнититься
 Зарегистрирован:   13 Фев 2018 02:04:09
 Размер:   30 GB  (
 Рейтинг:    (Голосов: 2)
 Поблагодарили:   25
 Проверка:   Оформление проверено модератором 13 Фев 2018 02:04:59
Как cкачать  ·  Как раздать  ·  Правильно оформить  ·  Поднять ратио!  
Показать сообщения:   
Начать новую тему   Ответить на тему    Торрент-трекер NNM-Club -> Зарубежное кино -> Фильмы в оригинале (HD) Часовой пояс: GMT + 3
Страница 1 из 1