Интеллигентный торрент-трекер
canvas not supported
Нас вместе: 4 122 342

Я не ведьма / I Am Not a Witch (2017) BDRemux [H.264/1080p] [EN / EN Sub]


 
 
RSS
Начать новую тему   Ответить на тему    Торрент-трекер NNM-Club -> Зарубежное кино -> Фильмы в оригинале (HD)
Автор Сообщение
smaster67 ®
Модератор Видео
Покровитель талантов Uploader 300+
Стаж: 8 лет 10 мес.
Сообщений: 6939
Ratio: 218,418
Поблагодарили: 206834
100%
Я не ведьма / I Am Not a Witch (2017) BDRemux [H.264/1080p] [EN / EN Sub]

Производство: Великобритания, Франция, Германия / Arte Prize, BFI Film Fund, Berlinale World Cinema Fund, The, Centre National de la Cinématographie et de l'Image Animée, Cinéfondation Residence, Clandestine films, Film4, HBF+Europe, Hubert Bals Fund, IFP No Borders Prize, Icreatefilms, Institut Français, Résidence Moulin d'Andé, Soda Pictures, unafilm
Жанр: драма

Режиссер: Рунгано Ниони
Актеры: Бенфорс Уи, Бойд Банда, Калунду Банда, Бонивентура, Бриски, Патриция Каррейра, Патриция Чамбва, Муреен Чаба, Джанет Чайль, Феликс Чиболе, Чичи, Марта Чиг'Амбо

Описание:
После небольшого инцидента в деревне девятилетняя Шула была признана виновной и сослана в лагерь для ведьм. Девочку предупредили, что если вдруг она попытается бежать - превратится в белого козла. В этой навязанной новой жизни ребёнку предстоит сделать выбор: принять судьбу или рискнуть всем ради свободы.



Продолжительность: 01:32:31
Качество видео: BDRemux
Перевод: Отсутствует
Язык озвучки: Английский
Субтитры: английские

Видео: AVC, 1920x1080 (16:9), 23989 kbps, 24 fps, 0.482 bpp
Аудио: английский / DTS-HD / 5.1 / 48 kHz / 2048 kbps / 16 bit (Core: 5.1 / 48 kHz / 1509 kbps / 16 bit)
Код: выделить все
General
Unique ID                                I.Am.Not.a.Witch.2017.BluRay.1080p.DTS-HD.MA.5.1.AVC.REMUX-FraMeSToR.mkv
Format                                   : Matroska
Format version                           : Version 4 / Version 2
File size                                : 16.8 GiB
Duration                                 : 1 h 32 min
Overall bit rate mode                    : Variable
Overall bit rate                         : 26.1 Mb/s
Movie name                               : I Am Not a Witch
Encoded date                             : UTC 2018-02-03 20:17:13
Writing application                      : mkvmerge v20.0.0 ('I Am The Sun') 64-bit
Writing library                          : libebml v1.3.5 + libmatroska v1.4.8

Video
ID                                       : 1
Format                                   : AVC
Format/Info                              : Advanced Video Codec
Format profile                           : High@L4.1
Format settings, CABAC                   : Yes
Format settings, ReFrames                : 3 frames
Format settings, GOP                     : M=3, N=12
Codec ID                                 : V_MPEG4/ISO/AVC
Duration                                 : 1 h 32 min
Bit rate mode                            : Variable
Bit rate                                 : 24.0 Mb/s
Maximum bit rate                         : 35.0 Mb/s
Width                                    : 1 920 pixels
Height                                   : 1 080 pixels
Display aspect ratio                     : 16:9
Frame rate mode                          : Constant
Frame rate                               : 24.000 FPS
Standard                                 : NTSC
Color space                              : YUV
Chroma subsampling                       : 4:2:0
Bit depth                                : 8 bits
Scan type                                : Progressive
Bits/(Pixel*Frame)                       : 0.482
Stream size                              : 15.5 GiB (92%)
Default                                  : Yes
Forced                                   : No
Color range                              : Limited
Color primaries                          : BT.709
Transfer characteristics                 : BT.709
Matrix coefficients                      : BT.709

Audio
ID                                       : 2
Format                                   : DTS
Format/Info                              : Digital Theater Systems
Format profile                           : MA / Core
Mode                                     : 16
Format settings, Endianness              : Big
Codec ID                                 : A_DTS
Duration                                 : 1 h 32 min
Bit rate mode                            : Variable / Constant
Bit rate                                 : 2 048 kb/s / 1 509 kb/s
Channel(s)                               : 6 channels
Channel positions                        : Front: L C R, Side: L R, LFE
Sampling rate                            : 48.0 kHz
Frame rate                               : 93.750 FPS (512 spf)
Bit depth                                : 16 bits
Compression mode                         : Lossless / Lossy
Stream size                              : 1.31 GiB (8%)
Title                                    : DTS-HD MA 5.1
Language                                 : English
Default                                  : Yes
Forced                                   : No

Text #1
ID                                       : 3
Format                                   : PGS
Codec ID                                 : S_HDMV/PGS
Codec ID/Info                            : Picture based subtitle format used on BDs/HD-DVDs
Duration                                 : 1 h 20 min
Bit rate                                 : 19.1 kb/s
Count of elements                        : 1276
Stream size                              : 11.0 MiB (0%)
Title                                    : English
Language                                 : English
Default                                  : No
Forced                                   : No

Text #2
ID                                       : 4
Format                                   : PGS
Codec ID                                 : S_HDMV/PGS
Codec ID/Info                            : Picture based subtitle format used on BDs/HD-DVDs
Duration                                 : 1 h 27 min
Bit rate                                 : 28.2 kb/s
Count of elements                        : 2348
Stream size                              : 17.7 MiB (0%)
Title                                    : English (SDH)
Language                                 : English
Default                                  : No
Forced                                   : No

Menu
00:00:00.000                             : en:Chapter 01
00:04:49.750                             : en:Chapter 02
00:12:33.958                             : en:Chapter 03
00:21:51.958                             : en:Chapter 04
00:30:28.417                             : en:Chapter 05
00:40:07.542                             : en:Chapter 06
00:47:59.083                             : en:Chapter 07
00:54:13.958                             : en:Chapter 08
01:00:52.042                             : en:Chapter 09
01:11:31.750                             : en:Chapter 10
01:19:30.042                             : en:Chapter 11
01:28:43.167                             : en:Chapter 12

Скриншоты:



Все одноименные релизы в Клубе

Время раздачи: с 13:00 до 23:00
 Торрент: Платиновая раздача  Зарегистрирован
 
Скачать


Примагнититься
 Зарегистрирован:   12 Фев 2018 23:36:17
 Размер:   16,8 GB  (
 Рейтинг:    (Голосов: 3)
 Поблагодарили:   25
 Проверка:   Оформление проверено модератором 12 Фев 2018 23:37:56
Как cкачать  ·  Как раздать  ·  Правильно оформить  ·  Поднять ратио!  
Показать сообщения:   
Начать новую тему   Ответить на тему    Торрент-трекер NNM-Club -> Зарубежное кино -> Фильмы в оригинале (HD) Часовой пояс: GMT + 3
Страница 1 из 1