Классический форум-трекер
canvas not supported
Нас вместе: 4 064 046

Время их жизни / The Time of Their Lives (2017) BDRip [H.264/1080p] [EN]


 
 
RSS
Начать новую тему   Ответить на тему    Торрент-трекер NNM-Club -> Зарубежное кино -> Фильмы в оригинале (HD, UHD, UHD-LQ)
Автор Сообщение
smaster67 ®
Модератор Видео
Покровитель талантов Uploader 300+
Стаж: 9 лет 4 мес.
Сообщений: 7082
Ratio: 225,838
Поблагодарили: 212404
100%
Время их жизни / The Time of Their Lives (2017) BDRip [H.264/1080p] [EN]

Производство: Великобритания / Bright Pictures, Creativity Capital, Head Gear Films, Metrol Technology
Жанр: комедия

Режиссер: Роджер Голдби
Актеры: Джоан Коллинз, Полин Коллинз, Франко Неро, Рональд Пикап, Сиан Ривз, Джоэли Ричардсон, Али Андерсон, Мартин Эрроусмит, Уэйн Катер, Ричард Симс, Латойя Личмен

Описание:
Бывшая звезда Голливуда Хелен Шелли, заручившись поддержкой своей новой подруги, отправляется из Лондона во Францию на похороны своего бывшего возлюбленного-режиссера, чтобы восстановить карьеру. На этом пути дам ожидают весьма непредсказуемые повороты судьбы, которые заставят их по-новому взглянуть на свое прошлое, настоящее и будущее.



Продолжительность: 01:44:11
Качество видео: BDRip
Перевод: Отсутствует
Язык озвучки: Английский
Субтитры: Отсутствуют

Видео: AVC, 1920x1038 (1.85:1), 13846 kbps, 23.976 fps, 0.290 bpp
Аудио: DTS-HD / 5.1 / 48 kHz / 3575 kbps / 24 bit (Core: 5.1 / 48 kHz / 1509 kbps / 24 bit)
Код: выделить все
General
Unique ID                              The.Time.of.Their.Lives.2017.BluRay.1080p.DTS-HD.M.A.5.1.x264 [NNM-Club.me].mkv
Format                                   : Matroska
Format version                           : Version 4 / Version 2
File size                                : 12.7 GiB
Duration                                 : 1 h 44 min
Overall bit rate                         : 17.4 Mb/s
Encoded date                             : UTC 2018-02-10 00:39:52
Writing application                      : mkvmerge v9.2.0 ('Photograph') 64bit
Writing library                          : libebml v1.3.3 + libmatroska v1.4.4

Video
ID                                       : 1
Format                                   : AVC
Format/Info                              : Advanced Video Codec
Format profile                           : High@L4.1
Format settings, CABAC                   : Yes
Format settings, ReFrames                : 4 frames
Codec ID                                 : V_MPEG4/ISO/AVC
Duration                                 : 1 h 44 min
Bit rate                                 : 13.8 Mb/s
Width                                    : 1 920 pixels
Height                                   : 1 038 pixels
Display aspect ratio                     : 1.85:1
Frame rate mode                          : Constant
Frame rate                               : 23.976 (24000/1001) FPS
Color space                              : YUV
Chroma subsampling                       : 4:2:0
Bit depth                                : 8 bits
Scan type                                : Progressive
Bits/(Pixel*Frame)                       : 0.290
Stream size                              : 10.1 GiB (79%)
Default                                  : Yes
Forced                                   : No

Audio
ID                                       : 2
Format                                   : DTS
Format/Info                              : Digital Theater Systems
Format profile                           : MA / Core
Mode                                     : 16
Format settings, Endianness              : Big
Codec ID                                 : A_DTS
Duration                                 : 1 h 44 min
Bit rate mode                            : Variable / Constant
Bit rate                                 : 3 576 kb/s / 1 509 kb/s
Channel(s)                               : 6 channels
Channel positions                        : Front: L C R, Side: L R, LFE
Sampling rate                            : 48.0 kHz
Frame rate                               : 93.750 FPS (512 spf)
Bit depth                                : 24 bits
Compression mode                         : Lossless / Lossy
Stream size                              : 2.60 GiB (21%)
Default                                  : Yes
Forced                                   : No

Скриншоты:



Все одноименные релизы в Клубе

Время раздачи: с 13:00 до 23:00
[NNM-Club.me]_The.Time.of.Their.Lives.2017.BluRay.1080p.DTS-HD.M.A.5.1.x264 [NNM-Club.me].mkv.torrent
 Торрент: Платиновая раздача  Зарегистрирован
 
Скачать


Примагнититься
 Зарегистрирован:   11 Фев 2018 21:00:03
 Размер:   12,7 GB  (
 Рейтинг:    (Голосов: 3)
 Поблагодарили:   29
 Проверка:   Оформление проверено модератором 11 Фев 2018 21:01:24
Как cкачать  ·  Как раздать  ·  Правильно оформить  ·  Поднять ратио!  
Показать сообщения:   
Начать новую тему   Ответить на тему    Торрент-трекер NNM-Club -> Зарубежное кино -> Фильмы в оригинале (HD, UHD, UHD-LQ) Часовой пояс: GMT + 3
Страница 1 из 1