Интеллигентный торрент-трекер
canvas not supported
Нас вместе: 4 096 991

Beth Hart & Joe Bonamassa - Black Coffee (2018) [FLAC 2.0 24/192|image|Vinyl-Rip] <Blues-Rock>


 
 
RSS
Начать новую тему   Ответить на тему    Торрент-трекер NNM-Club -> HD Audio и Многоканальная Музыка -> Vinyl-Rip и Hand-Made
Автор Сообщение
tegoffs ®
Виниловод. Сталкер
Стаж: 10 лет 7 мес.
Сообщений: 2919
Ratio: 17,54
Поблагодарили: 9154
100%
Откуда: мне знать?
honduras.gif
Beth Hart & Joe Bonamassa - Black Coffee (2018)
Год: 2018
Лейбл: J&R Adventures (JRA58248)
Страна: US
Жанр: Blues-Rock
Продолжительность: 00:49:45

Кодек: FLAC 2.0 24/192
Тип рипа: image+.cue
Формат записи: 32/192
Формат раздачи: 24/192

Треклист:
01. Give It Everything You Got (4:38)
02. Damn Your Eyes (4:34)
03. Black Coffee (4:15)
04. Lullaby of the Leaves (5:42)
05. Why Don't You Do Right (4:36)
06. Saved (3:50)
07. Sitting on Top of the World (3:59)
08. Joy (4:23)
09. Soul on Fire (5:01)
10. Addicted (3:42)
11. Come Rain or Come Shine (*bonus track!) (5:05)
Состояние диска удовлетворительное, но на грани - цветной винил и аховая штамповка (ex-). Первая копия пришла с царапинами на первой плитке, вторая пришла с кривой второй - сложил из двух одну, дальше рисковать не стал, потому как на обоих плитках есть дефекты штамповки. И еще один момент - предыдущий альбом был записан слишком слабо, здесь решили это исправить - альбом на двух плитках и ОЧЕНЬ громко записан - в двух-трех местах даже клипается. Поскольку у меня в тракте регулировки громкости на входном сигнале нет - придется с этими двумя-тремя клипами мириться. Где мирится - можно посмотреть в рапорте по динамическому диапазону. А еще надо заметить, что картинка на спектре приводит к тягостным раздумьям - не спроста там есть глухой срез 30 кГц, хотя звучит вполне себе нормально.
Тракт: AT-150Sa -> Yamaha GT-750 -> Lehmann Audio Black Cube SE -> Lynx L22 (интерконнекты Yamaha и Lynx).
Снято Sound Forge Pro 11, из постобработки - убрал в нескольких местах совсем уж грубую муть штамповки, но без фанатизма - где-то остались не совсем вызывающие моменты. Fade-in, fade-out.
Кьюшка и постер прописаны во флак.
Ковриками не сложилось - сейчас живу без сканера.
Код: выделить все
General
Complete name : J:\___vinyl rips\in progress\2018\Beth Hart & Joe Bonamassa - Black Coffee.flac
Format : FLAC
Format/Info : Free Lossless Audio Codec
File size : 1.80 GiB
Duration : 49mn 44s
Overall bit rate mode : Variable
Overall bit rate : 5 175 Kbps
Album : Black Coffee
Performer : Beth Hart & Joe Bonamassa
Producer : https://www.discogs.com/Beth-Hart-Joe-Bonamassa-Black-Coffee/release/11471346
Genre : Blues-Rock
Recorded date : 2018
Cover : Yes
Cover type : Cover (front)
Cover MIME : image/jpeg
Comment : AT-150Sa -> Yamaha GT-750 -> Lehmann Audio Black Cube SE -> Lynx L22 (интерконнекты Yamaha и Lynx).
CUESHEET : REM GENRE Blues-Rock / REM DATE 2018 / PERFORMER "Beth Hart & Joe Bonamassa" / TITLE "Black Coffee" / FILE "Beth Hart & Joe Bonamassa - Black Coffee.flac" WAVE / TRACK 01 AUDIO / TITLE "Give it Everything You Got" / INDEX 01 00:00:00 / TRACK 02 AUDIO / TITLE "Damn Your Eyes" / INDEX 01 00:04:38 / TRACK 03 AUDIO / TITLE "Black Coffee" / INDEX 01 00:09:12 / TRACK 04 AUDIO / TITLE "Lullaby of the Leaves" / INDEX 01 00:13:27 / TRACK 05 AUDIO / TITLE "Why Don't You Do Right" / INDEX 01 00:19:09 / TRACK 06 AUDIO / TITLE "Saved" / INDEX 01 00:23:45 / TRACK 07 AUDIO / TITLE "Sitting on Top of the World" / INDEX 01 00:27:35 / TRACK 08 AUDIO / TITLE "Joy" / INDEX 01 00:31:34 / TRACK 09 AUDIO / TITLE "Soul on Fire" / INDEX 01 00:35:57 / TRACK 10 AUDIO / TITLE "Addicted" / INDEX 01 00:40:58 / TRACK 11 AUDIO / TITLE "Come Rain or Come Shine (*bonus track!)" / INDEX 01 00:44:40

Audio
Format : FLAC
Format/Info : Free Lossless Audio Codec
Duration : 49mn 44s
Bit rate mode : Variable
Bit rate : 5 174 Kbps
Channel(s) : 2 channels
Channel positions : Front: L R
Sampling rate : 192 KHz
Bit depth : 24 bits
Stream size : 1.80 GiB (100%)
Writing library : libFLAC 1.3.0 (UTC 2013-05-26)
Код: выделить все
foobar2000 1.3.9 / Dynamic Range Meter 1.1.1
log date: 2018-02-07 23:41:39

--------------------------------------------------------------------------------
Analyzed: Beth Hart & Joe Bonamassa / Black Coffee
--------------------------------------------------------------------------------

DR         Peak         RMS     Duration Track
--------------------------------------------------------------------------------
DR12      -0.41 dB   -13.94 dB      4:38 01-Give it Everything You Got
DR14       0.00 dB   -15.02 dB      4:34 02-Damn Your Eyes
DR13      -0.43 dB   -15.06 dB      4:15 03-Black Coffee
DR13      -0.03 dB   -15.26 dB      5:42 04-Lullaby of the Leaves
DR13       0.00 dB   -14.76 dB      4:36 05-Why Don't You Do Right
DR12      -0.13 dB   -13.61 dB      3:50 06-Saved
DR12      -0.84 dB   -14.60 dB      3:59 07-Sitting on Top of the World
DR13       0.00 dB   -14.51 dB      4:23 08-Joy
DR12      -0.37 dB   -13.31 dB      5:01 09-Soul on Fire
DR12      -0.14 dB   -13.77 dB      3:42 10-Addicted
DR13       0.00 dB   -13.72 dB      5:05 11-Come Rain or Come Shine (*bonus track!)
--------------------------------------------------------------------------------

Number of tracks:  11
Official DR value: DR13

Samplerate:        192000 Hz
Channels:          2
Bits per sample:   24
Bitrate:           5174 kbps
Codec:             FLAC
================================================================================
Время раздачи: 24/7 до пяти скачавших, канал более-менее, но глюки случаются.
[NNM-Club.me]_Beth Hart & Joe Bonamassa - 2018 - Black Coffee.torrent
 Торрент: Платиновая раздача  Зарегистрирован
 
Скачать


Примагнититься
 Зарегистрирован:   08 Фев 2018 08:18:46
 Размер:   1,8 GB  (
 Рейтинг:   5 (Голосов: 13)
 Поблагодарили:   91
 Проверка:   Оформление проверено модератором 08 Фев 2018 08:32:17
Как cкачать  ·  Как раздать  ·  Правильно оформить  ·  Поднять ратио!  
yuri45
Стаж: 7 лет 10 мес.
Сообщений: 1
Ratio: 3,9
100%
russia.gif
tegoffs ®
Чуть раньше скачал с известный трекер оцифровку такой же пластинки и теперь скачал Вашу и
сравнил. Ваша оказалась существенно лучше. Спасибо большое!
VINIL MAN
Виниловый маньяк
Стаж: 8 лет 5 мес.
Сообщений: 8963
Ratio: 107,955
Раздал: 2,672 TB
Поблагодарили: 34505
100%
Откуда: Переяслав
ukraine.gif
Спасибо БолЬшо! Не, не сравнивалЪ. :D

_________________
Я не собираюсь менять мир, я просто хочу перевязать вам раны... Ян Андерсон
Показать сообщения:   
Начать новую тему   Ответить на тему    Торрент-трекер NNM-Club -> HD Audio и Многоканальная Музыка -> Vinyl-Rip и Hand-Made Часовой пояс: GMT + 3
Страница 1 из 1