Интеллигентный торрент-трекер
canvas not supported
Нас вместе: 4 095 938

Beatless / Мёртвый ритм [2018, TV, 20 ep] WEB-DL 720p Raw+Rus


 
 
RSS
Начать новую тему   Ответить на тему    Торрент-трекер NNM-Club -> Аниме с озвучкой -> Аниме с озвучкой (HD)
Автор Сообщение
Ampho_DnB ®
RG Аниме
Uploader 100+
 
Стаж: 6 лет 7 мес.
Сообщений: 3240
Ratio: 206,745
Поблагодарили: 78112
100%
Откуда: дует?
roody.gif
Beatless / Мёртвый ритм
Жанр: приключения, драма, романтика, фантастика
Тип: TV-сериал
Продолжительность: 20 эпизодов по 25 минут
Выпуск: c 13.01.2018 по 30.06.2018
Автор: Хасэ Сатоси
Режиссер: Мидзусима Сэйдзи
Производство: Studio Barcelona
Информационные ссылки: AniDB || World Art || MAL || ANN
Релиз подготовлен студией Kansai
  • Тип озвучки: Многоголосая, закадровая

Описание:
Однажды роботы с искусственным интеллектом придут и в нашу жизнь, и станут чем-то постоянным, без чего мы не будем представлять себя, как сейчас без гаджетов и интернета. А пока этого не случилось, остаётся смотреть аниме, в котором роботы уже стали частью жизни людей, и фантазировать. Но что, если всё пойдёт не так радужно, как мы можем себе напридумывать?

Гуманоидные роботы ГИЭ стали настолько популярны, что люди начали полагаться на них во всём, потворствуя своей лени. Возможно, это и стало главной причиной событий этого аниме. 17-летний Арато Эндо однажды повстречал робота Лацию, которая спасла его от несчастного случая. Они решили заключить между собой контракт владения, но Арато не знал, что ему достался очень редкий робот, один из пяти роботов, эволюционировавших и превзошедших человека по уровню развития. Также не знал он, что вскоре будет втянут в конфликт между роботами, имеющими свой смысл жизни и желание забрать друг у друга особые способности. Чем же обернётся эта борьба, и какими станут отношения между людьми и машинами?
Качество: WEB-DLRip | Энкод: HorribleSubs
Язык озвучки: Японский и Русский
Формат: MKV
Видео: x264, 1280x720, ~1 776 kbps, 23.976 fps
Аудио: AAC, 128 kbps, 44.1 kHz, 2 ch
Аудио: AAC, 192 kbps, 48.0 kHz, 2 ch
01. Contract
02. Analog Hacking
03. You`ll Be Mine
04. Automatic World
05. Tools for Outsourcers
06. Higgins Village
07. Boy meets Pornography
08. Awakening of Sleeping Beauty
09. My Whereabouts
10. Dwellings and Surroundings
11. Dystopia Game
12. Slumber of Human
13. The Prayer Within
14. An Answer to Survive
15. Edge Line
16. Plus One
17. A Reason of Our Own
18. Protocol of Love
19. Paper Tiger
20. Our Error World
General
Unique ID : 268164318923290192176061639916764860703 (0xC9BE91B5FB18A6E92BE5CE03E581111F)
Complete name : Beatless [KANSAI]\[KANSAI] Beatless - 01 [720p].mkv
Format : Matroska
Format version : Version 4 / Version 2
File size : 293 MiB
Duration : 24 min 27 s
Overall bit rate mode : Variable
Overall bit rate : 1 675 kb/s
Encoded date : UTC 2018-01-26 21:30:21
Writing application : mkvmerge v20.0.0 ('I Am The Sun') 64-bit
Writing library : libebml v1.3.5 + libmatroska v1.4.8

Video
ID : 1
Format : AVC
Format/Info : Advanced Video Codec
Format profile : High@L3.1
Format settings : CABAC / 5 Ref Frames
Format settings, CABAC : Yes
Format settings, ReFrames : 5 frames
Codec ID : V_MPEG4/ISO/AVC
Duration : 24 min 27 s
Bit rate mode : Variable
Bit rate : 1 358 kb/s
Maximum bit rate : 4 500 kb/s
Width : 1 280 pixels
Height : 720 pixels
Display aspect ratio : 16:9
Frame rate mode : Constant
Frame rate : 23.976 (24000/1001) FPS
Color space : YUV
Chroma subsampling : 4:2:0
Bit depth : 8 bits
Scan type : Progressive
Bits/(Pixel*Frame) : 0.061
Stream size : 237 MiB (81%)
Default : Yes
Forced : No
Color range : Limited
Color primaries : BT.709
Transfer characteristics : BT.709
Matrix coefficients : BT.709

Audio #1
ID : 2
Format : AAC
Format/Info : Advanced Audio Codec
Format profile : LC
Codec ID : A_AAC-2
Duration : 24 min 27 s
Bit rate : 192 kb/s
Channel(s) : 2 channels
Channel positions : Front: L R
Sampling rate : 48.0 kHz
Frame rate : 46.875 FPS (1024 SPF)
Compression mode : Lossy
Stream size : 33.1 MiB (11%)
Language : Russian
Default : Yes
Forced : No

Audio #2
ID : 3
Format : AAC
Format/Info : Advanced Audio Codec
Format profile : LC
Codec ID : A_AAC-2
Duration : 24 min 27 s
Bit rate : 125 kb/s
Channel(s) : 2 channels
Channel positions : Front: L R
Sampling rate : 48.0 kHz
Frame rate : 46.875 FPS (1024 SPF)
Compression mode : Lossy
Stream size : 21.9 MiB (7%)
Language : Japanese
Default : No
Forced : No


Время раздачи: До первых сидов
[NNM-Club.me]_Beatless [KANSAI].torrent
 Торрент:   Зарегистрирован
 
Зарегистрируйтесь и скачайте торрент!
26,9 KB
Free Leech
Примагнититься
 Зарегистрирован:   20 Авг 2018 22:56:24
 Размер:   5,06 GB  (
 Рейтинг:   4,5 (Голосов: 24)
 Поблагодарили:   76
 Проверка:   Оформление проверено модератором 21 Авг 2018 00:03:51
Как cкачать  ·  Как раздать  ·  Правильно оформить  ·  Поднять ратио!  

_________________
AMD Ryzen 1600 3.7GHz/ ASUS PRIME B350M-A/ PATRIOT Viper Elite DDR4-3200MHz 2x4096Mb/ SSD 128Gb + HDD 1000Gb/ ZOTAC GTX1060 3Gb/ Win 10 Pro x64
legio​nveen​t​
Стаж: 5 лет 1 мес.
Сообщений: 23
Ratio: 3,858
0.77%
Вполне смотрибельно, главное чтоб не слили...
Ampho_DnB ®
RG Аниме
Uploader 100+
 
Стаж: 6 лет 7 мес.
Сообщений: 3240
Ratio: 206,745
Поблагодарили: 78112
100%
Откуда: дует?
roody.gif
Торрент обновлен. Добавлена 20 серия.
Релиз завершен.

_________________
AMD Ryzen 1600 3.7GHz/ ASUS PRIME B350M-A/ PATRIOT Viper Elite DDR4-3200MHz 2x4096Mb/ SSD 128Gb + HDD 1000Gb/ ZOTAC GTX1060 3Gb/ Win 10 Pro x64
Показать сообщения:   
Начать новую тему   Ответить на тему    Торрент-трекер NNM-Club -> Аниме с озвучкой -> Аниме с озвучкой (HD) Часовой пояс: GMT + 3
Страница 1 из 1