Классический форум-трекер
canvas not supported
Нас вместе: 4 064 080

Hakumei to Mikochi / Хакумэй и Микоти [2018, TV, 12 ep + OVA] WEB-DL 720p Raw+Rus


 
 
RSS
Начать новую тему   Ответить на тему    Торрент-трекер NNM-Club -> Аниме с озвучкой -> Аниме с озвучкой (HD)
Автор Сообщение
Ampho_DnB ®
RG Аниме
Uploader 100+
 
Стаж: 6 лет 10 мес.
Сообщений: 3325
Ratio: 208,17
Поблагодарили: 79458
100%
Откуда: дует?
roody.gif
Hakumei to Mikochi / Хакумэй и Микоти
Жанр: повседневность, фэнтези
Тип: TV-сериал
Продолжительность: 12 эпизодов и ова по 25 минут
Выпуск: c 12.01.2018 по 30.03.2018
Автор: Касики Такуто
Снято по манге: Hakumei to Mikochi
Режиссер: Андо Масаоми
Производство: Lerche
Информационные ссылки: AniDB || World Art || MAL || ANN
Релиз подготовлен студией Студийная Банда
  • Тип озвучки: Многоголосая, закадровая

Описание:
Далеко-далеко в дремучем и мистическом лесу обитают странные и, может даже, неприглядные взору людскому, существа. Тот лес – колыбель для самых необыкновенных существ, которых он скрывает от путников, забредших не туда, оберегая привычный здешним обитателям ритм жизни. В этом месте, среди крон деревьев под могущей листвой расположился крохотный домик – меньше собачьей будки. Домик тот находится внутри огромнейшего дерева. В этом необычном строении живут две девочки, столь крохотные, что едва достигают пары вершков – Хакумей и Микочи. Девочки-лилипуты находятся в гармонии с лесными обитателями: не пренебрегают пользоваться помощью здешних насекомых и птиц, чтобы добыть необходимые припасы для пропитания. Вскоре оказывается, что Хакумей и Микочи не единственные лилипуты в этом огромном дремучем лесу. Не так далеко от их домика расположен целый город лилипутов! Путешествуя по загадочном лесу Хакумей и Микочи повстречают самых удивительных существ, попадут в невероятные передряги и откроют тайну о том, как же живут те, кто спрятан от людских очей!
Качество: WEB-DLRip | Энкод: HorribleSubs
Язык озвучки: Японский и Русский
Формат: MKV
Видео: x264, 1280x720, ~1 776 kbps, 23.976 fps
Аудио: AAC, 128 kbps, 44.1 kHz, 2 ch
Аудио: AAC, 192 kbps, 48.0 kHz, 2 ch
01. Yesterday`s Dark Red / Marketplace Shanty
02. The Two Songstresses / The Glass Lamp / A Cup of Coffee
03. Starlit Sky and Ponkan / Work Day
04. Work Day 2 / Horned Owls and Old Tales
05. The Association`s Work Site / Large Stones and Joint Stones
06. The Egg Beautician / A Day Off / The Egg Beautician: Day 2
07. A Ladder in the Tree / The Metropolitan Lifestyle / Photo of a Smile
08. A Long Day
09. Rhythm of the River Bottom / Dyed Goods of the Stubborn
10. Hot Bamboo Bath / Daikon and Pipes
11. Overnight Train / Rain and Tenkara
12. Memory of Dark Red Hair
OVA. Screws, Beds, Fireplaces, and Gambling
General
Unique ID : 335414089238685484622999572534996964915 (0xFC566760F8ABBF445AA64B8A0C331633)
Complete name : Hakumei to Mikochi [StudioBand]\[StudioBand] Hakumei to Mikochi - 01 [720p].mkv
Format : Matroska
Format version : Version 4 / Version 2
File size : 280 MiB
Duration : 24 min 45 s
Overall bit rate : 1 579 kb/s
Encoded date : UTC 2018-01-22 09:57:11
Writing application : mkvmerge v20.0.0 ('I Am The Sun') 64-bit
Writing library : libebml v1.3.5 + libmatroska v1.4.8

Video
ID : 1
Format : AVC
Format/Info : Advanced Video Codec
Format profile : High@L4.1
Format settings : CABAC / 6 Ref Frames
Format settings, CABAC : Yes
Format settings, ReFrames : 6 frames
Codec ID : V_MPEG4/ISO/AVC
Duration : 24 min 45 s
Bit rate : 1 230 kb/s
Width : 1 280 pixels
Height : 720 pixels
Display aspect ratio : 16:9
Frame rate mode : Constant
Frame rate : 23.976 (24000/1001) FPS
Color space : YUV
Chroma subsampling : 4:2:0
Bit depth : 8 bits
Scan type : Progressive
Bits/(Pixel*Frame) : 0.056
Stream size : 218 MiB (78%)
Writing library : x264 core 148
Encoding settings : cabac=1 / ref=6 / deblock=1:0:0 / analyse=0x3:0x113 / me=hex / subme=7 / psy=1 / psy_rd=1.00:0.00 / mixed_ref=1 / me_range=16 / chroma_me=1 / trellis=1 / 8x8dct=1 / cqm=0 / deadzone=21,11 / fast_pskip=1 / chroma_qp_offset=-2 / threads=22 / lookahead_threads=3 / sliced_threads=0 / nr=0 / decimate=1 / interlaced=0 / bluray_compat=0 / constrained_intra=0 / bframes=3 / b_pyramid=2 / b_adapt=1 / b_bias=0 / direct=1 / weightb=1 / open_gop=0 / weightp=2 / keyint=90 / keyint_min=9 / scenecut=0 / intra_refresh=0 / rc_lookahead=40 / rc=crf / mbtree=1 / crf=22.0 / qcomp=0.60 / qpmin=0 / qpmax=69 / qpstep=4 / vbv_maxrate=11100 / vbv_bufsize=111000 / crf_max=0.0 / nal_hrd=none / filler=0 / ip_ratio=1.40 / aq=1:1.00
Default : Yes
Forced : No

Audio #1
ID : 2
Format : AAC
Format/Info : Advanced Audio Codec
Format profile : LC
Codec ID : A_AAC-2
Duration : 24 min 45 s
Bit rate : 192 kb/s
Channel(s) : 2 channels
Channel positions : Front: L R
Sampling rate : 48.0 kHz
Frame rate : 46.875 FPS (1024 SPF)
Compression mode : Lossy
Delay relative to video : -43 ms
Stream size : 33.5 MiB (12%)
Language : Russian
Default : Yes
Forced : No

Audio #2
ID : 3
Format : AAC
Format/Info : Advanced Audio Codec
Format profile : LC
Codec ID : A_AAC-2
Duration : 24 min 45 s
Bit rate : 157 kb/s
Channel(s) : 2 channels
Channel positions : Front: L R
Sampling rate : 48.0 kHz
Frame rate : 46.875 FPS (1024 SPF)
Compression mode : Lossy
Delay relative to video : -43 ms
Stream size : 27.9 MiB (10%)
Title : Japanese
Language : Japanese
Default : No
Forced : No


Время раздачи: До первых сидов
[NNM-Club.me]_Hakumei to Mikochi [StudioBand].torrent
 Торрент: Платиновая раздача  Зарегистрирован
 
Скачать


Примагнититься
 Зарегистрирован:   27 Июн 2018 23:17:24
 Размер:   3,84 GB  (
 Рейтинг:   4,7 (Голосов: 30)
 Поблагодарили:   109
 Проверка:   Оформление проверено модератором 28 Июн 2018 12:43:00
Как cкачать  ·  Как раздать  ·  Правильно оформить  ·  Поднять ратио!  
hemulchik
Стаж: 8 лет
Сообщений: 17
Ratio: 2,868
Поблагодарили: 29
100%
russia.gif
Как же мне жаль, что не Кансай взяли для этого тайтла! Не вопрос, Банда хороша, и выпускают сейчас быстрее и стабильнее, чем Кансай (лицуха всё же), но как всё-таки жаль! Спрошу здесь: будете ли выкладывать от Кансая Насмешницу Такаги и Место за пределами Вселенной? Да и другие тайтлы, гда Кансай с Бандой не пересекаются?
Ampho_DnB ®
RG Аниме
Uploader 100+
 
Стаж: 6 лет 10 мес.
Сообщений: 3325
Ratio: 208,17
Поблагодарили: 79458
100%
Откуда: дует?
roody.gif
hemulchik
Я точно не буду делать, на носу ещё 11 релизов.
VoViHrO
Стаж: 3 года 2 мес.
Сообщений: 37
Ratio: 2,254
100%
Симпатишная вариация на тему Незнайки))
jtad
 
Стаж: 2 года 4 мес.
Сообщений: 383
Ratio: 4,854
Раздал: 979 GB
100%
выглядит неплохо, как рисуют природу в аниме очень впечатляет
Показать сообщения:   
Начать новую тему   Ответить на тему    Торрент-трекер NNM-Club -> Аниме с озвучкой -> Аниме с озвучкой (HD) Часовой пояс: GMT + 3
Страница 1 из 1