Интеллигентный торрент-трекер
canvas not supported
Нас вместе: 4 193 325

Mitsuboshi Colors / Трехцветные звездочки [2018, TV, 6 из 12] WEB-DL 720p Raw+Rus


 
 
RSS
Начать новую тему   Ответить на тему    Торрент-трекер NNM-Club -> Аниме с озвучкой -> Онгоинги с озвучкой
Автор Сообщение
Ampho_DnB ®
RG Аниме
Uploader 100+
 
Стаж: 6 лет 1 мес.
Сообщений: 2982
Ratio: 199,921
Поблагодарили: 74551
100%
Откуда: дует?
roody.gif
Mitsuboshi Colors / Трехцветные звездочки
Жанр: комедия, повседневность
Тип: TV-сериал
Продолжительность: 6 из 12 эпизодов по 25 минут
Выпуск: c 07.01.2018
Автор: Кацуво
Снято по манге: Mitsuboshi Colors
Режиссер: Кавамура Томоюки
Производство: Silver Link
Информационные ссылки: AniDB || World Art || MAL || ANN
Релиз подготовлен студией Студийная Банда
  • Тип озвучки: Многоголосая, закадровая

Описание:
Вот пока все занимаются совершенно бессмысленными делами: ходят на работу, смотрят телевизор или просто читают книги, некоторые, между прочим, защищают город! Эта работа требует полной отдачи и полного погружения, так что не думайте, что всё так просто! «Трехцветные звёздочки» - так себя именуют три девочки. Маленькие авантюристки не страдают от дефицита воображения и всегда знают, что им необходимо будет сделать именно в этот день: всё как и обычно – не дать городу погибнуть и сохранить в нём мир! Каждый их час расписан и дел у них довольно много. И как только успевают справляться? Может играет роль, что они – сплочённая команда. Они решают сложные ребусы и головоломки, наблюдают за городской жизнью и заглядывают в самые интересные его места, как например зоопарк или городской парк. Или же приходят на помощь нуждающимся – помогут престарелой бабушке перейти дорогу. Детство – лучшая пора нашей жизнь, наполненная «чистым воздухом» и самой зелёной травой! Свобода воображения и новые открытия, которые буду ждать тебя за углом!
Качество: WEB-DLRip | Энкод: HorribleSubs
Язык озвучки: Японский и Русский
Формат: MKV
Видео: x264, 1280x720, ~960 kbps, 23.976 fps
Аудио: AAC, 157 kbps, 48.0 kHz, 2 ch
Аудио: AAC, 192 kbps, 48.0 kHz, 2 ch
01. Loudly Laundry
02. Hide and Go Seek
03. Do the Cha-Cabu
04. Summer Festival
05. Zoo
06. Weakness Identification Meeting
General
Unique ID : 317808486897416416202070263799487460523 (0xEF17B02A92B3C7EB6E897C7D89ECF4AB)
Complete name : Mitsuboshi Colors [StudioBand]\[StudioBand] Mitsuboshi Colors - 01 [720p].mkv
Format : Matroska
Format version : Version 4 / Version 2
File size : 231 MiB
Duration : 24 min 41 s
Overall bit rate : 1 309 kb/s
Encoded date : UTC 2018-01-09 17:55:37
Writing application : mkvmerge v19.0.0 ('Brave Captain') 64-bit
Writing library : libebml v1.3.5 + libmatroska v1.4.8

Video
ID : 1
Format : AVC
Format/Info : Advanced Video Codec
Format profile : High@L4.1
Format settings : CABAC / 6 Ref Frames
Format settings, CABAC : Yes
Format settings, ReFrames : 6 frames
Codec ID : V_MPEG4/ISO/AVC
Duration : 24 min 41 s
Bit rate : 960 kb/s
Width : 1 280 pixels
Height : 720 pixels
Display aspect ratio : 16:9
Frame rate mode : Constant
Frame rate : 23.976 (24000/1001) FPS
Color space : YUV
Chroma subsampling : 4:2:0
Bit depth : 8 bits
Scan type : Progressive
Bits/(Pixel*Frame) : 0.043
Stream size : 169 MiB (73%)
Writing library : x264 core 148
Encoding settings : cabac=1 / ref=6 / deblock=1:0:0 / analyse=0x3:0x113 / me=hex / subme=7 / psy=1 / psy_rd=1.00:0.00 / mixed_ref=1 / me_range=16 / chroma_me=1 / trellis=1 / 8x8dct=1 / cqm=0 / deadzone=21,11 / fast_pskip=1 / chroma_qp_offset=-2 / threads=22 / lookahead_threads=3 / sliced_threads=0 / nr=0 / decimate=1 / interlaced=0 / bluray_compat=0 / constrained_intra=0 / bframes=3 / b_pyramid=2 / b_adapt=1 / b_bias=0 / direct=1 / weightb=1 / open_gop=0 / weightp=2 / keyint=90 / keyint_min=9 / scenecut=0 / intra_refresh=0 / rc_lookahead=40 / rc=crf / mbtree=1 / crf=22.0 / qcomp=0.60 / qpmin=0 / qpmax=69 / qpstep=4 / vbv_maxrate=11100 / vbv_bufsize=111000 / crf_max=0.0 / nal_hrd=none / filler=0 / ip_ratio=1.40 / aq=1:1.00
Default : Yes
Forced : No

Audio #1
ID : 2
Format : AAC
Format/Info : Advanced Audio Codec
Format profile : LC
Codec ID : A_AAC-2
Duration : 24 min 41 s
Bit rate : 192 kb/s
Channel(s) : 2 channels
Channel positions : Front: L R
Sampling rate : 48.0 kHz
Frame rate : 46.875 FPS (1024 SPF)
Compression mode : Lossy
Delay relative to video : -43 ms
Stream size : 33.4 MiB (14%)
Language : Russian
Default : Yes
Forced : No

Audio #2
ID : 3
Format : AAC
Format/Info : Advanced Audio Codec
Format profile : LC
Codec ID : A_AAC-2
Duration : 24 min 41 s
Bit rate : 157 kb/s
Channel(s) : 2 channels
Channel positions : Front: L R
Sampling rate : 48.0 kHz
Frame rate : 46.875 FPS (1024 SPF)
Compression mode : Lossy
Delay relative to video : -43 ms
Stream size : 27.8 MiB (12%)
Title : Japanese
Language : Japanese
Default : No
Forced : No


Время раздачи: До первых сидов
[NNM-Club.me]_Mitsuboshi Colors [StudioBand].torrent
 Торрент:   Зарегистрирован
 
Зарегистрируйтесь и скачайте торрент!
14,1 KB
Free Leech
Примагнититься
 Зарегистрирован:   13 Фев 2018 23:17:56
 Размер:   1,33 GB  (
 Рейтинг:   4,3 (Голосов: 11)
 Поблагодарили:   22
 Проверка:   Оформление проверено модератором 13 Фев 2018 23:54:55
Как cкачать  ·  Как раздать  ·  Правильно оформить  ·  Поднять ратио!  
Ampho_DnB ®
RG Аниме
Uploader 100+
 
Стаж: 6 лет 1 мес.
Сообщений: 2982
Ratio: 199,921
Поблагодарили: 74551
100%
Откуда: дует?
roody.gif
Торрент обновлен. Добавлены 2 и 3 серии.
wolfi​gor20​10​
Стаж: 6 лет 10 мес.
Сообщений: 1
Ratio: 1,351
0.94%
russia.gif
Лицензионная озвучка "ваканиума" ? Спасибо большое за раздачу)
Ampho_DnB ®
RG Аниме
Uploader 100+
 
Стаж: 6 лет 1 мес.
Сообщений: 2982
Ratio: 199,921
Поблагодарили: 74551
100%
Откуда: дует?
roody.gif
Торрент обновлен. Добавлена 4 серия.
Ampho_DnB ®
RG Аниме
Uploader 100+
 
Стаж: 6 лет 1 мес.
Сообщений: 2982
Ratio: 199,921
Поблагодарили: 74551
100%
Откуда: дует?
roody.gif
Торрент обновлен. Добавлены 5 и 6 серии.
Показать сообщения:   
Начать новую тему   Ответить на тему    Торрент-трекер NNM-Club -> Аниме с озвучкой -> Онгоинги с озвучкой Часовой пояс: GMT + 3
Страница 1 из 1