Интеллигентный торрент-трекер
canvas not supported
Нас вместе: 4 095 940

Shingeki no Kyojin: Lost Girls / Attack on Titan: Lost Girls / Атака Титанов: Потерянные Девушки [2017, OVA, 2 из 3] DVDRip 480p Raw+Rus


 
 
RSS
Начать новую тему   Ответить на тему    Торрент-трекер NNM-Club -> Аниме с озвучкой -> Аниме с озвучкой (SD)
Автор Сообщение
Ampho_DnB ®
RG Аниме
Uploader 100+
 
Стаж: 6 лет 7 мес.
Сообщений: 3240
Ratio: 206,746
Поблагодарили: 78112
100%
Откуда: дует?
roody.gif
Shingeki no Kyojin: Lost Girls / Attack on Titan: Lost Girls / Атака Титанов: Потерянные Девушки
Жанр: приключения, фэнтези, драма
Тип: OVA
Продолжительность: 2 из 3 эпизодов по 25 минут
Выпуск: c 08.12.2017 по 09.08.2018
Автор: Исаяма Хадзимэ
Снято по манге: Shingeki no Kyojin
Режиссер: Коидзука Масаси
Производство: Wit Studio
Информационные ссылки: AniDB || World Art || MAL
Релиз подготовлен студией Kansai
  • Тип озвучки: Многоголосая, закадровая

Описание:
История о поисках Энни потерянной девочки, расследование её исчезновения и преграды, которые мешают ей довести дело до конца. История о сне Микасы, в котором стена Мария не была разрушена, а родители Микасы не умерли. В воображение молодая девушка встречает Эрена и узнает о том, что он хочет покинуть стены и увидеть мир за ними. История о том, что привело Анни и Микасу в Разведотряд.
Качество: DVDRip | Энкод: death
Язык озвучки: Японский и Русский
Формат: MKV
Видео: x264, 720x406, ~427 kbps, 23.976 fps
Аудио: AAC, 159 kbps, 48.0 kHz, 2 ch
Аудио: AAC, 192 kbps, 48.0 kHz, 2 ch
01. Wall Sina, Goodbye: Part 1
02. Wall Sina, Goodbye (Part 2)
General
Unique ID : 285069930883601490167302576449771325993 (0xD67678BBA66ABE1166901B0D8F80CA29)
Complete name : Shingeki no Kyojin. Lost Girls [KANSAI]\[KANSAI] Shingeki no Kyojin. Lost Girls OVA - 01 [480p].mkv
Format : Matroska
Format version : Version 4 / Version 2
File size : 135 MiB
Duration : 24 min 9 s
Overall bit rate : 779 kb/s
Encoded date : UTC 2017-12-21 19:09:54
Writing application : mkvmerge v19.0.0 ('Brave Captain') 64-bit
Writing library : libebml v1.3.5 + libmatroska v1.4.8

Video
ID : 1
Format : AVC
Format/Info : Advanced Video Codec
Format profile : High@L3
Format settings : CABAC / 5 Ref Frames
Format settings, CABAC : Yes
Format settings, ReFrames : 5 frames
Codec ID : V_MPEG4/ISO/AVC
Duration : 24 min 9 s
Bit rate : 427 kb/s
Width : 720 pixels
Height : 406 pixels
Display aspect ratio : 16:9
Frame rate mode : Constant
Frame rate : 23.976 (24000/1001) FPS
Color space : YUV
Chroma subsampling : 4:2:0
Bit depth : 8 bits
Scan type : Progressive
Bits/(Pixel*Frame) : 0.061
Stream size : 73.9 MiB (55%)
Writing library : x264 core 152 r2851 ba24899
Encoding settings : cabac=1 / ref=5 / deblock=1:0:0 / analyse=0x3:0x113 / me=hex / subme=8 / psy=1 / psy_rd=1.00:0.00 / mixed_ref=1 / me_range=16 / chroma_me=1 / trellis=2 / 8x8dct=1 / cqm=0 / deadzone=21,11 / fast_pskip=1 / chroma_qp_offset=-2 / threads=6 / lookahead_threads=1 / sliced_threads=0 / nr=0 / decimate=1 / interlaced=0 / bluray_compat=0 / constrained_intra=0 / bframes=3 / b_pyramid=2 / b_adapt=1 / b_bias=0 / direct=3 / weightb=1 / open_gop=0 / weightp=2 / keyint=250 / keyint_min=23 / scenecut=40 / intra_refresh=0 / rc_lookahead=50 / rc=crf / mbtree=1 / crf=20.0 / qcomp=0.60 / qpmin=0 / qpmax=69 / qpstep=4 / ip_ratio=1.40 / aq=1:1.00
Default : Yes
Forced : No

Audio #1
ID : 2
Format : AAC
Format/Info : Advanced Audio Codec
Format profile : LC
Codec ID : A_AAC-2
Duration : 24 min 9 s
Bit rate : 192 kb/s
Channel(s) : 2 channels
Channel positions : Front: L R
Sampling rate : 48.0 kHz
Frame rate : 46.875 FPS (1024 SPF)
Compression mode : Lossy
Delay relative to video : -21 ms
Stream size : 32.7 MiB (24%)
Language : Russian
Default : Yes
Forced : No

Audio #2
ID : 3
Format : AAC
Format/Info : Advanced Audio Codec
Format profile : LC
Codec ID : A_AAC-2
Duration : 24 min 9 s
Bit rate : 159 kb/s
Channel(s) : 2 channels
Channel positions : Front: L R
Sampling rate : 48.0 kHz
Frame rate : 46.875 FPS (1024 SPF)
Compression mode : Lossy
Delay relative to video : -21 ms
Stream size : 27.5 MiB (20%)
Language : Japanese
Default : No
Forced : No


Время раздачи: До первых сидов
[NNM-Club.me]_Shingeki no Kyojin. Lost Girls [KANSAI].torrent
 Торрент: Платиновая раздача  Зарегистрирован
 
Скачать


Примагнититься
 Зарегистрирован:   17 Май 2018 20:23:37
 Размер:   532 MB  (
 Рейтинг:   4,5 (Голосов: 17)
 Поблагодарили:   55
 Проверка:   Оформление проверено модератором 17 Май 2018 23:12:04
Как cкачать  ·  Как раздать  ·  Правильно оформить  ·  Поднять ратио!  
Ampho_DnB ®
RG Аниме
Uploader 100+
 
Стаж: 6 лет 7 мес.
Сообщений: 3240
Ratio: 206,746
Поблагодарили: 78112
100%
Откуда: дует?
roody.gif
Торрент обновлен. Добавлена 2 серия.
Волхов
Стаж: 3 года 6 мес.
Сообщений: 12
Ratio: 5,898
2.58%
Сейчас посмотрим , ждал продолжения, спасибо.
Показать сообщения:   
Начать новую тему   Ответить на тему    Торрент-трекер NNM-Club -> Аниме с озвучкой -> Аниме с озвучкой (SD) Часовой пояс: GMT + 3
Страница 1 из 1