Интеллигентный торрент-трекер
Нас вместе: 4 187 109

Новости торрент-трекера | Как тут скачивать? | Как раздавать торренты? | Правила оформления

Тарас Бульба / Taras Bulba (1962) DVDRip


 
 
RSS
Начать новую тему   Ответить на тему    Торрент-трекер NNM-Club -> Классика кино и Фильмы до 90-х -> Зарубежная Классика (HD*Rip/LQ, DVDRip, SATRip, VHSRip)
Предыдущая тема :: Следующая тема 
Автор Сообщение
silver9997 ®
Стаж: 6 лет
Сообщений: 142
Ratio: 16,238
Раздал: 2,383 TB
Поблагодарили: 8862
100%
Откуда: Ингард
Сообщение 01 Апр 2009 21:06:07  Заголовок сообщения: Тарас Бульба / Taras Bulba (1962) DVDRip Ответить с цитатой

Тарас Бульба / Taras Bulba (1962) DVDRip
Производство: США, Югославия, Avala Film, Harold Hecht Productions
Жанр: Драма, Приключения

Режиссер: Джей Ли Томпсон
Актеры: Тони Кертис, Юл Бриннер, Кристине Кауфманн, Сэм Уэнамэйкер, Гай Ролф, Брэд Декстер, Владимир Соколофф, Джордж Макреди

Описание фильма:
Польский принц Григорий предал казаков, и объявил казацкие чубы вне закона. Полковник казачьих войск Тарас Бульба распустил на время свое войско, но не отказался от своей цели — сделать степи свободными. Двое сыновей у Тараса, Остап и Андрей. Он научил их стрелять и скакать верхом, пить и куролесить по-казацки.
А грамоте учиться отправил их в Киев, чтобы среди врагов узнали они, как думают и воюют поляки. Прилежно изучал Андрей чужую науку, был во всем достоин своего отца, пока однажды не встретился взором с молодой и прекрасной полячкой. Дочь градоначальника Наталья также милостиво посматривает на Андрея. Но разве могут они быть счастливы, если ее родня не считает казаков за людей, а его народ мечтает лишь о том, чтобы уничтожить поляков?..



Продолжительность: 1:58:52
Перевод: Одноголосый закадровый

Видеокодек: DivX 4/5/6
Битрейт видео: ~1381 kb/s
Размер кадра: 672*288
Качество видео: DVDRip
Аудиокодек: MP3
Битрейт аудио: 128 kb/s
Общее
Полное имя :TARAS BULBA 1962.avi
Формат : AVI
Формат/Информация : Audio Video Interleave
Размер файла : 1,37 Гбайт
Продолжительность : 1 ч. 58 м.
Общий поток : 1652 Кбит/сек
Программа кодирования : VirtualDubModRus 1.5.10.2 (build 2540/release)
Библиотека кодирования : VirtualDubMod build 2540/release

Видео
Идентификатор : 0
Формат : MPEG-4 Visual
Профиль формата : Simple@L3
Параметр BVOP формата : 1
Параметр QPel формата : Нет
Параметр GMC формата : Без точки перехода
Параметр матрицы формата : Default (MPEG)
Режим смешивания : Сжатый битовый поток
Идентификатор кодека : DIVX
Идентификатор кодека/Информация : Project Mayo
Идентификатор кодека/Подсказка : DivX 4
Продолжительность : 1 ч. 58 м.
Битрейт : 1381 Кбит/сек
Ширина : 672 пикселя
Высота : 288 пикселей
Соотношение сторон : 2,40:1
Соотношение сторон в оригинале : 2,35:1
Частота кадров : 25,000 кадров/сек
Цветовое пространство : YUV
Субдискретизация насыщенности : 4:2:0
Битовая глубина : 8 бит
Тип развёртки : Прогрессивная
Метод сжатия : С потерями
Бит/(Пиксели*Кадры) : 0.285
Размер потока : 1,15 Гбайт (84%)
Библиотека кодирования : XviD 1.0.2 (UTC 2004-08-29)

Аудио #1
Идентификатор : 1
Формат : MPEG Audio
Версия формата : Version 1
Профиль формата : Layer 3
Режим : Joint stereo
Расширение режима : MS Stereo
Идентификатор кодека : 55
Идентификатор кодека/Подсказка : MP3
Продолжительность : 1 ч. 58 м.
Вид битрейта : Постоянный
Битрейт : 128 Кбит/сек
Каналы : 2 канала
Частота : 48,0 КГц
Метод сжатия : С потерями
Размер потока : 109 Мбайт (8%)
Выравнивание : Соединение по промежуткам
Продолжительность промежутка : 40 мс. (1,00 видеокадр)
Время предзагрузки промежутка : 504 мс.

Аудио #2
Идентификатор : 2
Формат : MPEG Audio
Версия формата : Version 1
Профиль формата : Layer 3
Режим : Joint stereo
Расширение режима : MS Stereo
Идентификатор кодека : 55
Идентификатор кодека/Подсказка : MP3
Продолжительность : 1 ч. 58 м.
Вид битрейта : Постоянный
Битрейт : 128 Кбит/сек
Каналы : 2 канала
Частота : 48,0 КГц
Метод сжатия : С потерями
Размер потока : 109 Мбайт (8%)
Выравнивание : Соединение по промежуткам
Продолжительность промежутка : 40 мс. (1,00 видеокадр)
Время предзагрузки промежутка : 504 мс.
Скриншоты:
[NNM-Club.ru] TARAS BULBA 1962.avi.torrent
 Торрент: Платиновая раздача  Зарегистрирован
 

Free Leech
Скачать
13,9 KB
 Зарегистрирован:   01 Апр 2009 21:06:15
 Размер:   1,37 GB  (
 Рейтинг:   4,4 (Голосов: 47)
 Поблагодарили:   157
 Проверка:   Оформление проверено модератором 02 Апр 2009 11:56:19
Как cкачать  ·  Как раздать  ·  Правильно оформить  ·  Поднять ратио!  
WIKtorER
Стаж: 6 лет
Сообщений: 6
Ratio: 4,645
55.88%
russia.gif
Сообщение 01 Апр 2009 22:39:53  Заголовок сообщения: Ответить с цитатой

Спасибо за редкий фильм с хорошим составом
silver9997 ®
Стаж: 6 лет
Сообщений: 142
Ratio: 16,238
Раздал: 2,383 TB
Поблагодарили: 8862
100%
Откуда: Ингард
Сообщение 01 Апр 2009 22:48:15  Заголовок сообщения: Ответить с цитатой

Пожалуйста.Всегда рад помочь =)
lout888
Стаж: 7 лет 8 мес.
Сообщений: 83
Ratio: 3,721
15.24%
ukraine.gif
Сообщение 01 Апр 2009 22:50:01  Заголовок сообщения: Ответить с цитатой

Очень интересно, спасибо!
Jay GoodWin
Стаж: 6 лет 7 мес.
Сообщений: 197
Ratio: 22,335
Раздал: 20,74 TB
Поблагодарили: 231
100%
Откуда: Lvov
ukraine.gif
Сообщение 01 Апр 2009 23:15:52  Заголовок сообщения: Ответить с цитатой

На отличном историческом и литературном материале великого романа Гоголя сделали качественный фильм но не более того. Отмечаю хорошо поставленные сцены сражений и переданные основные сюжетные линии романа.

Есть и минусы. Опущены многие яркие натуралистические подробности боев, почти ничего не показано о устройстве жизни в Сечи, да и вопрос религиозной разницы между поляками и казаками не показан.

Фильму можно поставить и десятку, но в любом случае я порекомендовал бы прочитать саму книгу и не судить по этому фильму о произведении классика.
avtocrack
Стаж: 3 года 11 мес.
Сообщений: 60
Ratio: 66,338
100%
russia.gif
Сообщение 23 Янв 2015 11:22:52  Заголовок сообщения: Ответить с цитатой

О таком фильме даже не слышал. Хорошо, что есть торренты и на них размещают такие фильмы!!! Спасибо раздающему много раз.
DaggetMOV
Стаж: 5 лет 5 мес.
Сообщений: 145
Ratio: 10K
Поблагодарили: 5945
100%
nnm-club.gif
Сообщение 23 Янв 2015 12:33:35  Заголовок сообщения: Ответить с цитатой

Неожиданно! Огромное спасибо!
Kalitenga
Стаж: 5 лет 2 мес.
Сообщений: 250
Ratio: 5,249
91.15%
russia.gif
Сообщение 23 Янв 2015 13:15:06  Заголовок сообщения: Ответить с цитатой

Прикольное кино про индейцев.
slavkryt
Стаж: 4 года 10 мес.
Сообщений: 9
Ratio: 5,59
4.8%
ukraine.gif
Сообщение 23 Янв 2015 21:34:25  Заголовок сообщения: Ответить с цитатой

Kalitenga
Абсолютно с вами согласен
Показать сообщения:   
Начать новую тему   Ответить на тему    Торрент-трекер NNM-Club -> Классика кино и Фильмы до 90-х -> Зарубежная Классика (HD*Rip/LQ, DVDRip, SATRip, VHSRip) Часовой пояс: GMT + 3
Страница 1 из 1