Классический форум-трекер
canvas not supported
Нас вместе: 4 069 159

Sting - Nothing Like The Sun (2001) [DTS-CD]


Страницы:  1, 2  След. 
 
RSS
Начать новую тему   Ответить на тему    Торрент-трекер NNM-Club -> HD Audio и Многоканальная Музыка -> DTS-Audio
Автор Сообщение
bond69 ®
Стаж: 11 лет 5 мес.
Сообщений: 98
Ratio: 2,195
Поблагодарили: 3445
100%
ukraine.gif
Sting - Nothing Like The Sun (2001)
Год: 2001
Жанр: Rock

Кодек: DTS 5.1
Битрейт: 1411

Трек лист:

01 The Lazarus Heart 4:35
02 Be Still My Beating Heart 5:34
03 Englishman in New York 4:27
04 History Will Teach Us Nothing 5:07
05 They Dance Alone 6:48
06 Fragile 3:58
07 We'll Be Together 4:53
08 Straight to My Heart 3:54
09 Rock Steady4:28
10 Sister Moon 3:57
11 Little Wing 5:03
12 The Secret Marriage 2:02

Время раздачи: 24/7 - круглосуточно
[NNM-Club.ru] Sting - Nothing Like the Sun.torrent
 Торрент: Платиновая раздача  Зарегистрирован
 
Скачать


 Зарегистрирован:   02 Мар 2009 22:36:30
 Размер:   554 MB  (
 Рейтинг:   4,6 (Голосов: 29)
 Поблагодарили:   128
 Проверка:   Оформление проверено модератором 02 Мар 2009 22:39:59
Как cкачать  ·  Как раздать  ·  Правильно оформить  ·  Поднять ратио!  
silicoid
Стаж: 9 лет 10 мес.
Сообщений: 3
Ratio: 12,59
Поблагодарили: 92
10.64%
russia.gif
Маленький вопрос.
А чем это можно послушать/переконвертить.. а то у меня даже VLC не берёт ?
VirusBIN
Сталкер
Стаж: 11 лет 2 мес.
Сообщений: 28820
Ratio: 54,501
Поблагодарили: 9342
100%
Откуда: Beverly Восточное
witch.png
silicoid писал(а):
а то у меня даже VLC не берёт ?

Должен работать в любом случае.

_________________
Правила раздела :: Сделать треклист :: auCDtect Task Manager :: TagScanner :: EAC :: CUE
Google: «Скорее всего, на картинке девушка с шампанским»
artem_imp
Стаж: 11 лет 4 мес.
Сообщений: 41
Ratio: 4,847
21.64%
Откуда: Череповец
russia.gif
Сидеров в студию!
Хачу Стинга в ДТС!

Добавлено спустя 3 минуты 52 секунды:

О!
Процесс пошел. Спасибо.
Не уходите пару часов (скорость блин...)
Y0!ZiK
Стаж: 11 лет 1 мес.
Сообщений: 206
Ratio: 3,229
Поблагодарили: 31
100%
Откуда: Челябинск
КМР как-то странно его крутит, как пластинку вместо 33 оборотов 78
silicoid
Стаж: 9 лет 10 мес.
Сообщений: 3
Ratio: 12,59
Поблагодарили: 92
10.64%
russia.gif
я научился читать подобное
Пишу на диск при помощи неро и прилагаемого cue файла.
потом слушаю Cyberlink power dvd ultra
самый последний VLC - не берёт даже с диска. тоже касается KM-а если открывать из файла. если открывать с диска - проблем нет.
VirusBIN
Сталкер
Стаж: 11 лет 2 мес.
Сообщений: 28820
Ratio: 54,501
Поблагодарили: 9342
100%
Откуда: Beverly Восточное
witch.png
Скачал. Послушал. Звук не понравился, но сейчас не об этом.

По плеерам:
1. Фубар (0.9.5 beta 5) - играет убыстренно.
2. VLC (0.9.9) - не завелся.
3. KMPlayer (2.9.3.1428) - проиграл без проблем.

Замечу, что для некоторых плееров надо менять расширение с .wav на .dts

_________________
Правила раздела :: Сделать треклист :: auCDtect Task Manager :: TagScanner :: EAC :: CUE
Google: «Скорее всего, на картинке девушка с шампанским»
eugen141
Стаж: 10 лет 5 мес.
Сообщений: 6
Ratio: 0,374
100%
russia.gif
Большое спасибо, хороший звук.
rudart
Стаж: 9 лет 10 мес.
Сообщений: 21
Ratio: 34,629
Поблагодарили: 33
12.38%
russia.gif
Спасибо!
Звук лучше, чем у многих DVD-audio.
Проблема современной звукозаписи все же в мастеринге, а не в форматах.
xDDDx
Стаж: 9 лет 4 мес.
Сообщений: 207
Ratio: 11,481
Поблагодарили: 4165
100%
russia.gif
Вы сами хоть понимаете что вы выложили?Скачал я вашего Стинга,и где DTS 5.1,не стыдно туфту впаривать людям,вы хоть сами снимали инфо фаил по вашему медио файлу Стинга? Вот я вам ее и предоставляю:General
Complete name : D:\VIDEO_TS\Новая папка\Sting - Nothing Like the Sun\Sting - Nothing Like the Sun.wav
Format : Wave
File size : 554 MiB
Duration : 54mn 51s
Overall bit rate : 1 411.2 Kbps

Audio
ID : 0
Format : PCM
Codec ID : 1
Codec ID/Hint : Microsoft
Duration : 54mn 51s
Bit rate : 1 411.2 Kbps
Channel(s) : 2 channels
Sampling rate : 44.1 KHz
Resolution : 16 bits
Stream size : 554 MiB (100%)

И где позвольте мне узнать здесь DTS 5.1.В итоге скачал не то что предоставлено,это в первых,в вторых - учет скачаного,кто мне его возместит, ВЫ???Да и просто обидно то что скачал не то что предложили.
VirusBIN
Сталкер
Стаж: 11 лет 2 мес.
Сообщений: 28820
Ratio: 54,501
Поблагодарили: 9342
100%
Откуда: Beverly Восточное
witch.png
xDDDx
Кто вам сказал что медиаинфо правильно поймет такой вариант дтс?
И читайте выше - все уже разжевано. Пред за необоснованные обвинения релизера.


_________________
Правила раздела :: Сделать треклист :: auCDtect Task Manager :: TagScanner :: EAC :: CUE
Google: «Скорее всего, на картинке девушка с шампанским»
xDDDx
Стаж: 9 лет 4 мес.
Сообщений: 207
Ratio: 11,481
Поблагодарили: 4165
100%
russia.gif
Ну да,ну да посмотрите что я скачал,и причем тут EAC,как он работает и как снять я знаю без вас.Я вам предоставил инфу по медиа файлу а не LOG фаил.Вот вам пример Pinc Floyd:
General
Complete name : D:\VIDEO_TS\Новая папка\pink.floyd.The.Wall.DTS.CD(2)\Pink Floyd - The Wall - disc 1 - DTS 5.1.bin
Format : Wave
File size : 397 MiB
Duration : 39mn 19s
Overall bit rate : 1 411.2 Kbps

Audio
ID : 0
Format : DTS
Format/Info : Digital Theater Systems
Format profile : LE / 14
Codec ID : 1
Codec ID/Hint : Microsoft
Duration : 39mn 19s
Bit rate mode : Constant
Bit rate : 1 411.2 Kbps
Channel(s) : 6 channels
Channel positions : Front: L C R, Surround: L R, LFE
Sampling rate : 44.1 KHz
Resolution : 24 bits
Stream size : 397 MiB (100%)

Вот это и есть DTS и каналы по моему все указаны,а как вы написали снять и смотрели фаил LOG так там продоставлена только инфа по снятию,а так как он снят в WAV то это еще не значит что это DTS 5.1,ну а на счет медиа инфо то с увереностью вам могу сказать что он снимит инфу по любому аудио и видео файлу,а разжовывать мне не надо,я тоже не плохо знаю что такое формат DTS и с чем его едят
VirusBIN
Сталкер
Стаж: 11 лет 2 мес.
Сообщений: 28820
Ratio: 54,501
Поблагодарили: 9342
100%
Откуда: Beverly Восточное
witch.png
xDDDx
Это моя подпись, а не сообщение вам =)

Повторюсь - все сверху разжевано. Да, диск глючный, но все уже это знают. Что мне до медиаинфо? Я вам показал свойства в фубаре - чем плохо? Или вы эту картинку намеренно не заметили?

_________________
Правила раздела :: Сделать треклист :: auCDtect Task Manager :: TagScanner :: EAC :: CUE
Google: «Скорее всего, на картинке девушка с шампанским»
xDDDx
Стаж: 9 лет 4 мес.
Сообщений: 207
Ratio: 11,481
Поблагодарили: 4165
100%
russia.gif
я заметил,и он не глючный это DTS2.0,всего навсего,я вам лс отправил,если не прав то простите,в принципе я сам виноват,не знал что в каменты смотреть надо,вот и прошляпил.просто мне мое ратио жалко знал бы что 2.0 так и не качал бы,эти форматы качают только ценители хорошего качества,а их мало,и пока раздам время много пройдет.
bond69 ®
Стаж: 11 лет 5 мес.
Сообщений: 98
Ratio: 2,195
Поблагодарили: 3445
100%
ukraine.gif
xDDDx
я заметил,и он не глючный это DTS2.0,всего навсего. :(

Данные из foobar2000


Данные из KMPlayer


=)
Показать сообщения:   
Начать новую тему   Ответить на тему    Торрент-трекер NNM-Club -> HD Audio и Многоканальная Музыка -> DTS-Audio Часовой пояс: GMT + 3
Страницы:  1, 2  След.
Страница 1 из 2