Интеллигентный торрент-трекер
canvas not supported
Нас вместе: 4 138 490

Michael Belletz (Mnemonic, The Last Gambit, Architrav, L.iet & Kurt Bogenholtz) - Discography 19 Releases (2001-2018) [FLAC|Lossless|tracks+.cue, tracks] <IDM, Ambient, Industrial, Electro, Abstract>


 
 
RSS
Начать новую тему   Ответить на тему    Торрент-трекер NNM-Club -> Electronic -> IDM (Lossless)
Автор Сообщение
vilator ®
Модератор Музыки
RG Music
 
Стаж: 9 лет
Сообщений: 6996
Ratio: 119,493
Поблагодарили: 141468
100%
Откуда: Minsk
pirates.png
mnemonic

German electronic project which includes Michael Belletz and Sebastian Schulz.
Жанр: IDM, Ambient, Industrial, Electro, Abstract • Страна: Germany • Год издания: 2001-2018 • Тип издания: CD, Web
Аудиокодек: FLAC (*.flac) • Тип рипа: tracks+.cue, tracks • Продолжительность: 21:24:59 • Источник: What, RED, Sleasy, bandcamp
Треклист:
Год выпуска: 2001
Продолжительность: 01:45:39
Треклист:

01. Human Fragments (05:01)
02. Dopetunnel (05:50)
03. Shadowchild (05:54)
04. Identifikationsstörung (04:07)
05. Stay (04:27)
06. Pupertäre Pseudodepression (04:28)
07. Outsider (05:03)
08. Labyrinth (05:29)
09. Frustkompensation (03:03)
10. Subconscious (05:12)
11. Amnesie (04:05)
12. Human Fragments (Ammo Rmx) (03:10)
13. Frustkompensation (Somatic Responses Rmx) (05:28)
14. Labyrinth (Implant Remix) (04:42)
15. Limitierte Rekonstruktionsmöglichkeit (06:01)
16. Origin Unknown? (Demo Version '98) (04:18)
17. Temporal Loss (Demo Version '98) (04:17)
18. Amnesie (Architrav/D-F Rmx) (06:25)
19. Frustkompensation (Somatic Responses Extended Rmx) (07:30)
20. Human Fragments (God Module Violent Genetics Rmx) (05:24)
21. Labyrinth (Razed In Black Rmx) (05:45)

-----------------------

DON'T MODIFY THIS FILE

-----------------------

PERFORMER: auCDtect Task Manager, ver. 1.6.0 RC1 build 1.6.0.1
Copyright (c) 2008-2010 y-soft. All rights reserved
http://y-soft.org

ANALYZER: auCDtect: CD records authenticity detector, version 0.8.2
Copyright (c) 2004 Oleg Berngardt. All rights reserved.
Copyright (c) 2004 Alexander Djourik. All rights reserved.

FILE: 21. Labyrinth (Razed In Black Rmx).flac
Size: 45606813 Hash: BA0F07AB75AD1B9467A3A4A59DF95408 Accuracy: -m0
Conclusion: CDDA 100%
Signature: 3B9929FA4BA292A29151A1F7E0B4589AD884D67F
FILE: 20. Human Fragments (God Module Violent Genetics Rmx).flac
Size: 41898072 Hash: B0085A13A46E4454219B6B06C2A92116 Accuracy: -m0
Conclusion: CDDA 100%
Signature: 4A6C70BAA9DA337DA8403DF4063A5FAED6924179
FILE: 19. Frustkompensation (Somatic Responses Extended Rmx).flac
Size: 54071358 Hash: 8B5072FEF3899E603504EF85684290B2 Accuracy: -m0
Conclusion: MPEG 73%
Signature: 3AAD5D565C6BBAD4145CCC006312BF6BA3C49983
FILE: 18. Amnesie (Architrav,D-F Rmx).flac
Size: 37107517 Hash: 24FDECF1B6F6047074B3CB7971AADCA3 Accuracy: -m0
Conclusion: CDDA 100%
Signature: F6440DAA2AFF7D5134E590C5F978198E058F73C3
FILE: 17. Temporal Loss (Demo Version '98).flac
Size: 31737936 Hash: 07C2ACD2D6D3D9AAECECFE07E13E9768 Accuracy: -m0
Conclusion: CDDA 99%
Signature: C7982C9BB10F2A1962C70CF1E4370047F9AAF396
FILE: 16. Origin Unknown! (Demo Version '98).flac
Size: 31363468 Hash: 71562056C4E0CF566C79F758421A3F17 Accuracy: -m0
Conclusion: CDDA 99%
Signature: 9B9430944543F433F8702A2A10A3DB0F56950905
FILE: 15. Limitierte Rekonstruktionsmöglichkeit.flac
Size: 40459216 Hash: D6ACC59EE45C3B7FD8847916E73AD425 Accuracy: -m0
Conclusion: CDDA 100%
Signature: FB4890867CD292F6F9C0CC982000AF55F52E06AA
FILE: 14. Labyrinth (Implant Remix).flac
Size: 33428200 Hash: 69E5C44A8DBA5FD6D51BBF82CF14E760 Accuracy: -m0
Conclusion: CDDA 100%
Signature: DC46D470095BE7749F26190B804488E72CAA62C7
FILE: 13. Frustkompensation (Somatic Responses Rmx).flac
Size: 38659069 Hash: 7E448DE0D9A04DB40F3DA98E1A88085D Accuracy: -m0
Conclusion: CDDA 62%
Signature: 43E353B09E9C437ABEEBB871FD946445D979EFFD
FILE: 12. Human Fragments (Ammo Rmx).flac
Size: 20913714 Hash: A3906733D40CDB6291FAE46129047C97 Accuracy: -m0
Conclusion: CDDA 100%
Signature: 37CEA488200FB299B0C13A5FC479D7AA04DFCAF2
FILE: 11. Amnesie.flac
Size: 26056956 Hash: D4178FA742A92967F825BBA3C0E35702 Accuracy: -m0
Conclusion: CDDA 100%
Signature: A44B2FE0E5AD12ED682804DA87BC3C710DBA9F04
FILE: 10. Subconscious.flac
Size: 36142583 Hash: D886076D6447D7FCB12995A92C44F381 Accuracy: -m0
Conclusion: CDDA 100%
Signature: 17D96DC5F9AEA872BF188E7C1976C49FDC88CA87
FILE: 09. Frustkompensation.flac
Size: 19550210 Hash: 3F2227364131CA36F66063663895234B Accuracy: -m0
Conclusion: CDDA 100%
Signature: B4A3EE238472ECE40DFEBEB8CCA22A5196DFCB49
FILE: 08. Labyrinth.flac
Size: 36340209 Hash: 0390C467BDB819E9819EC7CECE30C558 Accuracy: -m0
Conclusion: CDDA 100%
Signature: EFC96B49236AE35D1968948CF3808432E4773944
FILE: 07. Outsider.flac
Size: 32877406 Hash: 1ADB3B4B139B07105DF9C6B8B068CC2A Accuracy: -m0
Conclusion: CDDA 100%
Signature: FBEB447B77361A63FB4727C2CA7B62A80994D79E
FILE: 06. Pupertäre Pseudodepression.flac
Size: 29307708 Hash: 36E55E40BD092C030CAE3C6764452BA6 Accuracy: -m0
Conclusion: CDDA 100%
Signature: 1B4384238082029A7A83998516377F2CA0DC4B2A
FILE: 05. Stay.flac
Size: 32439210 Hash: 70716E34AFCBAAC1D732EE37F3BDCD40 Accuracy: -m0
Conclusion: CDDA 99%
Signature: AA7F39B7234E577DA74FA01F4BE8109CE6919765
FILE: 04. Identifikationsstörung.flac
Size: 29163472 Hash: F73A73A7192E3DFD48083C8AE4D7B7B5 Accuracy: -m0
Conclusion: CDDA 100%
Signature: 77354AB4E9844C361458E4D5CADD2E4FF5F27CB4
FILE: 03. Shadowchild.flac
Size: 39209706 Hash: 967572217857AC78FDC649083B2D77F1 Accuracy: -m0
Conclusion: CDDA 100%
Signature: 877C443F2F77C4DCA6455D40DBCC6DAA79F52E1F
FILE: 02. Dopetunnel.flac
Size: 36310955 Hash: B4489EAFF6042AF720A630CD33B9AD3B Accuracy: -m0
Conclusion: CDDA 100%
Signature: 3546181B28FBD83C42C3E38895A1539AFA33B6F0
FILE: 01. Human Fragments.flac
Size: 34587937 Hash: 5F21E1AA0B471CA03B3489BC00F8CB95 Accuracy: -m0
Conclusion: CDDA 100%
Signature: B3472A5F087E556D40BEE85026F226372D91837B

Год выпуска: 2009
Продолжительность: 00:59:52
Треклист:

01. Denkmodell (05:47)
02. Stille Tage (05:36)
03. Die Kunst Des Schweigens (05:40)
04. Lautlos (05:22)
05. Entdeckung Der Einsamkeit (05:20)
06. Ein Hauch Von Poesie (05:12)
07. Im Augenblick (04:42)
08. Lichtblick (04:45)
09. Phlegma (06:37)
10. Ein Ich Aus Glas (04:54)
11. Tuchfuhlung (05:57)

Exact Audio Copy V0.99 prebeta 5 from 4. May 2009

EAC extraction logfile from 4. January 2010, 14:06

Mnemonic / Denkmodell

Used drive : _NEC DVD_RW ND-3550A Adapter: 0 ID: 0

Read mode : Secure
Utilize accurate stream : Yes
Defeat audio cache : Yes
Make use of C2 pointers : No

Read offset correction : 48
Overread into Lead-In and Lead-Out : No
Fill up missing offset samples with silence : Yes
Delete leading and trailing silent blocks : No
Null samples used in CRC calculations : Yes
Used interface : Installed external ASPI interface
Gap handling : Appended to previous track

Used output format : User Defined Encoder
Selected bitrate : 1024 kBit/s
Quality : High
Add ID3 tag : No
Command line compressor : D:\Programs\Tools\_Exact Audio Copy\FLAC\FLAC.EXE
Additional command line options : -8 -V -T "ARTIST=%a" -T "TITLE=%t" -T "ALBUM=%g" -T "DATE=%y" -T "TRACKNUMBER=%n" -T "GENRE=%m" -T "COMMENT=%e" %s -o %d

TOC of the extracted CD

Track | Start | Length | Start sector | End sector
---------------------------------------------------------
1 | 0:00.00 | 5:47.11 | 0 | 26035
2 | 5:47.11 | 5:36.03 | 26036 | 51238
3 | 11:23.14 | 5:40.30 | 51239 | 76768
4 | 17:03.44 | 5:22.25 | 76769 | 100943
5 | 22:25.69 | 5:20.27 | 100944 | 124970
6 | 27:46.21 | 5:11.56 | 124971 | 148351
7 | 32:58.02 | 4:41.72 | 148352 | 169498
8 | 37:39.74 | 4:44.68 | 169499 | 190866
9 | 42:24.67 | 6:36.64 | 190867 | 220630
10 | 49:01.56 | 4:54.02 | 220631 | 242682
11 | 53:55.58 | 5:57.37 | 242683 | 269494

Track 1

Filename G:\EAC Temporare\01 Denkmodell.wav

Pre-gap length 0:00:02.00

Peak level 98.8 %
Track quality 100.0 %
Test CRC 7FBAEAC4
Copy CRC 7FBAEAC4
Track not present in AccurateRip database
Copy OK

Track 2

Filename G:\EAC Temporare\02 Stille Tage.wav

Pre-gap length 0:00:02.00

Peak level 98.8 %
Track quality 99.9 %
Test CRC F13513C2
Copy CRC F13513C2
Track not present in AccurateRip database
Copy OK

Track 3

Filename G:\EAC Temporare\03 Die Kunst Des Schweigens.wav

Pre-gap length 0:00:02.00

Peak level 98.8 %
Track quality 99.9 %
Test CRC 0B1483F1
Copy CRC 0B1483F1
Track not present in AccurateRip database
Copy OK

Track 4

Filename G:\EAC Temporare\04 Lautlos.wav

Pre-gap length 0:00:02.00

Peak level 98.8 %
Track quality 100.0 %
Test CRC 703CA60C
Copy CRC 703CA60C
Track not present in AccurateRip database
Copy OK

Track 5

Filename G:\EAC Temporare\05 Entdeckung Der Einsamkeit.wav

Pre-gap length 0:00:02.00

Peak level 98.8 %
Track quality 100.0 %
Test CRC 639ACA72
Copy CRC 639ACA72
Track not present in AccurateRip database
Copy OK

Track 6

Filename G:\EAC Temporare\06 Ein Hauch Von Poesie.wav

Pre-gap length 0:00:02.00

Peak level 98.8 %
Track quality 100.0 %
Test CRC B70D1E53
Copy CRC B70D1E53
Track not present in AccurateRip database
Copy OK

Track 7

Filename G:\EAC Temporare\07 Im Augenblick.wav

Pre-gap length 0:00:02.00

Peak level 98.8 %
Track quality 100.0 %
Test CRC 177697BA
Copy CRC 177697BA
Track not present in AccurateRip database
Copy OK

Track 8

Filename G:\EAC Temporare\08 Lichtblick.wav

Pre-gap length 0:00:02.00

Peak level 98.8 %
Track quality 99.9 %
Test CRC A2949119
Copy CRC A2949119
Track not present in AccurateRip database
Copy OK

Track 9

Filename G:\EAC Temporare\09 Phlegma.wav

Pre-gap length 0:00:02.01

Peak level 98.8 %
Track quality 99.9 %
Test CRC 2B148CA4
Copy CRC 2B148CA4
Track not present in AccurateRip database
Copy OK

Track 10

Filename G:\EAC Temporare\10 Ein Ich Aus Glas.wav

Pre-gap length 0:00:02.00

Peak level 98.8 %
Track quality 100.0 %
Test CRC F9AD9596
Copy CRC F9AD9596
Track not present in AccurateRip database
Copy OK

Track 11

Filename G:\EAC Temporare\11 Tuchfuhlung.wav

Pre-gap length 0:00:02.00

Peak level 98.8 %
Track quality 100.0 %
Test CRC B6F9F95F
Copy CRC B6F9F95F
Track not present in AccurateRip database
Copy OK

None of the tracks are present in the AccurateRip database

No errors occurred

End of status report


REM GENRE IDM
REM DATE 2009
REM DISCID A00E090B
REM COMMENT ExactAudioCopy v0.99pb5
PERFORMER "Mnemonic"
TITLE "Denkmodell"
FILE "01 Denkmodell.flac" WAVE
TRACK 01 AUDIO
TITLE "Denkmodell"
FLAGS DCP
INDEX 01 00:00:00
FILE "02 Stille Tage.flac" WAVE
TRACK 02 AUDIO
TITLE "Stille Tage"
FLAGS DCP
INDEX 00 00:00:00
INDEX 01 00:02:00
FILE "03 Die Kunst Des Schweigens.flac" WAVE
TRACK 03 AUDIO
TITLE "Die Kunst Des Schweigens"
FLAGS DCP
INDEX 00 00:00:00
INDEX 01 00:02:00
FILE "04 Lautlos.flac" WAVE
TRACK 04 AUDIO
TITLE "Lautlos"
FLAGS DCP
INDEX 00 00:00:00
INDEX 01 00:02:00
FILE "05 Entdeckung Der Einsamkeit.flac" WAVE
TRACK 05 AUDIO
TITLE "Entdeckung Der Einsamkeit"
FLAGS DCP
INDEX 00 00:00:00
INDEX 01 00:02:00
FILE "06 Ein Hauch Von Poesie.flac" WAVE
TRACK 06 AUDIO
TITLE "Ein Hauch Von Poesie"
FLAGS DCP
INDEX 00 00:00:00
INDEX 01 00:02:00
FILE "07 Im Augenblick.flac" WAVE
TRACK 07 AUDIO
TITLE "Im Augenblick"
FLAGS DCP
INDEX 00 00:00:00
INDEX 01 00:02:00
FILE "08 Lichtblick.flac" WAVE
TRACK 08 AUDIO
TITLE "Lichtblick"
FLAGS DCP
INDEX 00 00:00:00
INDEX 01 00:02:00
FILE "09 Phlegma.flac" WAVE
TRACK 09 AUDIO
TITLE "Phlegma"
FLAGS DCP
INDEX 00 00:00:00
INDEX 01 00:02:01
FILE "10 Ein Ich Aus Glas.flac" WAVE
TRACK 10 AUDIO
TITLE "Ein Ich Aus Glas"
FLAGS DCP
INDEX 00 00:00:00
INDEX 01 00:02:00
FILE "11 Tuchfuhlung.flac" WAVE
TRACK 11 AUDIO
TITLE "Tuchfuhlung"
FLAGS DCP
INDEX 00 00:00:00
INDEX 01 00:02:00

Год выпуска: 2010
Продолжительность: 00:21:49
Треклист:

01. DNN - When Angels Travel (04:45)
02. DNN - Number 68 (05:23)
03. Mnemonic - Konservierte Emotion (05:21)
04. Mnemonic - Sinnspiel (06:20)

-----------------------

DON'T MODIFY THIS FILE

-----------------------

PERFORMER: auCDtect Task Manager, ver. 1.6.0 RC1 build 1.6.0.1
Copyright (c) 2008-2010 y-soft. All rights reserved
http://y-soft.org

ANALYZER: auCDtect: CD records authenticity detector, version 0.8.2
Copyright (c) 2004 Oleg Berngardt. All rights reserved.
Copyright (c) 2004 Alexander Djourik. All rights reserved.

FILE: 04. Mnemonic - Sinnspiel.flac
Size: 36155359 Hash: 540D05A3832F9EE71B46CE254D119D29 Accuracy: -m0
Conclusion: MPEG 95%
Signature: 55EB57B364EEC5EC4975F60E8426012E1496B880
FILE: 03. Mnemonic - Konservierte Emotion.flac
Size: 30492592 Hash: F38868C599907C4045EED2808B2B40CC Accuracy: -m0
Conclusion: MPEG 95%
Signature: 2C82573144409F3278FD9E0E10822D9ADCCC7406
FILE: 02. DNN - Number 68.flac
Size: 27998943 Hash: DADDB20DD50920922F23800014C3288A Accuracy: -m0
Conclusion: CDDA 100%
Signature: BD660B18054583621C3D845364913A98C1136DED
FILE: 01. DNN - When Angels Travel.flac
Size: 26484055 Hash: 49E6D8D868B8A760D87477C93EFBEB77 Accuracy: -m0
Conclusion: MPEG 95%
Signature: D22A26635011F2B8EC2C06FA44EB9B35113D85A4

Год выпуска: 2010
Продолжительность: 00:59:27
Треклист:

01. Hiersein (05:54)
02. Miasma (05:37)
03. Empathie (04:43)
04. Violette Tinte (05:54)
05. Neonweiße Leere (05:12)
06. Das Verkaufte Lachen (04:26)
07. Abstrakte Gefuhle (05:46)
08. Elend.Ende (05:01)
09. Zeitraffer (06:00)
10. Mensche (05:42)
11. Weg Von Mir (05:12)

X Lossless Decoder version 20130720 (144.0)

XLD extraction logfile from 2013-10-05 14:16:10 +0200

Mnemonic / Hörsinn

Used drive : MATSHITA DVD-R UJ-857E (revision ZB0E)
Media type : CD-Recordable

Ripper mode : XLD Secure Ripper
Disable audio cache : OK for the drive with a cache less than 1375KiB
Make use of C2 pointers : NO
Read offset correction : 102
Max retry count : 100
Gap status : Analyzed, Appended (except HTOA)

TOC of the extracted CD
Track | Start | Length | Start sector | End sector
---------------------------------------------------------
1 | 00:00:00 | 05:54:18 | 0 | 26567
2 | 05:54:18 | 05:36:44 | 26568 | 51811
3 | 11:30:62 | 04:42:68 | 51812 | 73029
4 | 16:13:55 | 05:54:32 | 73030 | 99611
5 | 22:08:12 | 05:11:40 | 99612 | 122976
6 | 27:19:52 | 04:26:03 | 122977 | 142929
7 | 31:45:55 | 05:46:08 | 142930 | 168887
8 | 37:31:63 | 05:01:29 | 168888 | 191491
9 | 42:33:17 | 05:59:51 | 191492 | 218467
10 | 48:32:68 | 05:42:30 | 218468 | 244147
11 | 54:15:23 | 05:12:27 | 244148 | 267574

AccurateRip Summary
Disc not found in AccurateRip DB.

All Tracks
Album gain : -5.23 dB
Peak : 0.988861
Statistics
Read error : 0
Jitter error (maybe fixed) : 0
Retry sector count : 0
Damaged sector count : 0

Track 01
Filename : /T/Mnemonic - Hörsinn (2010) [FLAC]/01 Hiersein.flac
Pre-gap length : 00:02:00

Track gain : -3.78 dB
Peak : 0.988861
CRC32 hash (test run) : CEBA2D0E
CRC32 hash : CEBA2D0E
CRC32 hash (skip zero) : 754AD942
AccurateRip v1 signature : 2826C64F
AccurateRip v2 signature : 52A8169C
->Track not present in AccurateRip database.
Statistics
Read error : 0
Jitter error (maybe fixed) : 0
Retry sector count : 0
Damaged sector count : 0

Track 02
Filename : /T/Mnemonic - Hörsinn (2010) [FLAC]/02 Miasma.flac
Pre-gap length : 00:02:00

Track gain : -3.50 dB
Peak : 0.988556
CRC32 hash (test run) : E7BD7937
CRC32 hash : E7BD7937
CRC32 hash (skip zero) : 40035AC5
AccurateRip v1 signature : 2EC6743B
AccurateRip v2 signature : AF1B5A50
->Track not present in AccurateRip database.
Statistics
Read error : 0
Jitter error (maybe fixed) : 0
Retry sector count : 0
Damaged sector count : 0

Track 03
Filename : /T/Mnemonic - Hörsinn (2010) [FLAC]/03 Empathie.flac
Pre-gap length : 00:02:00

Track gain : -6.27 dB
Peak : 0.988556
CRC32 hash (test run) : A40D7BC5
CRC32 hash : A40D7BC5
CRC32 hash (skip zero) : 7A16B072
AccurateRip v1 signature : 1ED6E354
AccurateRip v2 signature : 0E3BA820
->Track not present in AccurateRip database.
Statistics
Read error : 0
Jitter error (maybe fixed) : 0
Retry sector count : 0
Damaged sector count : 0

Track 04
Filename : /T/Mnemonic - Hörsinn (2010) [FLAC]/04 Violette Tinte.flac
Pre-gap length : 00:02:00

Track gain : -3.21 dB
Peak : 0.988556
CRC32 hash (test run) : 3B8AE8AD
CRC32 hash : 3B8AE8AD
CRC32 hash (skip zero) : 98324645
AccurateRip v1 signature : 7F25E5EE
AccurateRip v2 signature : C96FCFF6
->Track not present in AccurateRip database.
Statistics
Read error : 0
Jitter error (maybe fixed) : 0
Retry sector count : 0
Damaged sector count : 0

Track 05
Filename : /T/Mnemonic - Hörsinn (2010) [FLAC]/05 Neonweiße Leere.flac
Pre-gap length : 00:02:00

Track gain : -5.40 dB
Peak : 0.977234
CRC32 hash (test run) : 35D809BC
CRC32 hash : 35D809BC
CRC32 hash (skip zero) : 941069B6
AccurateRip v1 signature : BA9DC2DE
AccurateRip v2 signature : E923429B
->Track not present in AccurateRip database.
Statistics
Read error : 0
Jitter error (maybe fixed) : 0
Retry sector count : 0
Damaged sector count : 0

Track 06
Filename : /T/Mnemonic - Hörsinn (2010) [FLAC]/06 Das verkaufte Lachen.flac
Pre-gap length : 00:02:00

Track gain : -4.68 dB
Peak : 0.988556
CRC32 hash (test run) : 01C99971
CRC32 hash : 01C99971
CRC32 hash (skip zero) : C26CC8E8
AccurateRip v1 signature : E438DCC4
AccurateRip v2 signature : 1A9C0122
->Track not present in AccurateRip database.
Statistics
Read error : 0
Jitter error (maybe fixed) : 0
Retry sector count : 0
Damaged sector count : 0

Track 07
Filename : /T/Mnemonic - Hörsinn (2010) [FLAC]/07 Abstraktes Gefühle.flac
Pre-gap length : 00:02:00

Track gain : -5.73 dB
Peak : 0.988556
CRC32 hash (test run) : F7866555
CRC32 hash : F7866555
CRC32 hash (skip zero) : D53A5C12
AccurateRip v1 signature : 240D70C5
AccurateRip v2 signature : AC3E6D0E
->Track not present in AccurateRip database.
Statistics
Read error : 0
Jitter error (maybe fixed) : 0
Retry sector count : 0
Damaged sector count : 0

Track 08
Filename : /T/Mnemonic - Hörsinn (2010) [FLAC]/08 Elend.Ende.flac
Pre-gap length : 00:02:00

Track gain : -6.92 dB
Peak : 0.988556
CRC32 hash (test run) : 9F43DCAC
CRC32 hash : 9F43DCAC
CRC32 hash (skip zero) : 10451131
AccurateRip v1 signature : A287398F
AccurateRip v2 signature : 2D1C08D0
->Track not present in AccurateRip database.
Statistics
Read error : 0
Jitter error (maybe fixed) : 0
Retry sector count : 0
Damaged sector count : 0

Track 09
Filename : /T/Mnemonic - Hörsinn (2010) [FLAC]/09 Zeitraffer.flac
Pre-gap length : 00:02:00

Track gain : -5.44 dB
Peak : 0.988556
CRC32 hash (test run) : 52F0BDB4
CRC32 hash : 52F0BDB4
CRC32 hash (skip zero) : F6E70F5E
AccurateRip v1 signature : 37ACDA3C
AccurateRip v2 signature : ACC57788
->Track not present in AccurateRip database.
Statistics
Read error : 0
Jitter error (maybe fixed) : 0
Retry sector count : 0
Damaged sector count : 0

Track 10
Filename : /T/Mnemonic - Hörsinn (2010) [FLAC]/10 Menschenlärm.flac
Pre-gap length : 00:02:00

Track gain : -2.57 dB
Peak : 0.988556
CRC32 hash (test run) : BD593B75
CRC32 hash : BD593B75
CRC32 hash (skip zero) : 96351F7A
AccurateRip v1 signature : 0900F08B
AccurateRip v2 signature : E7902C8A
->Track not present in AccurateRip database.
Statistics
Read error : 0
Jitter error (maybe fixed) : 0
Retry sector count : 0
Damaged sector count : 0

Track 11
Filename : /T/Mnemonic - Hörsinn (2010) [FLAC]/11 Weg von Mir.flac
Pre-gap length : 00:02:00

Track gain : -2.76 dB
Peak : 0.988556
CRC32 hash (test run) : 72D97E79
CRC32 hash : 72D97E79
CRC32 hash (skip zero) : EDFE7E5D
AccurateRip v1 signature : 894697D5
AccurateRip v2 signature : DDE14927
->Track not present in AccurateRip database.
Statistics
Read error : 0
Jitter error (maybe fixed) : 0
Retry sector count : 0
Damaged sector count : 0

No errors occurred

End of status report


TITLE "Hörsinn"
PERFORMER "Mnemonic"
REM DATE "2010-09-30"
REM DISCID 980DEF0B
REM REPLAYGAIN_ALBUM_GAIN -5.23 dB
REM REPLAYGAIN_ALBUM_PEAK 0.988861
FILE "01 Hiersein.flac" WAVE
TRACK 01 AUDIO
TITLE "Hiersein"
PERFORMER "Mnemonic"
FLAGS DCP
REM REPLAYGAIN_TRACK_GAIN -3.78 dB
REM REPLAYGAIN_TRACK_PEAK 0.988861
INDEX 01 00:00:00
TRACK 02 AUDIO
TITLE "Miasma"
PERFORMER "Mnemonic"
FLAGS DCP
REM REPLAYGAIN_TRACK_GAIN -3.50 dB
REM REPLAYGAIN_TRACK_PEAK 0.988556
INDEX 00 05:52:18
FILE "02 Miasma.flac" WAVE
INDEX 01 00:00:00
TRACK 03 AUDIO
TITLE "Empathie"
PERFORMER "Mnemonic"
FLAGS DCP
REM REPLAYGAIN_TRACK_GAIN -6.27 dB
REM REPLAYGAIN_TRACK_PEAK 0.988556
INDEX 00 05:34:44
FILE "03 Empathie.flac" WAVE
INDEX 01 00:00:00
TRACK 04 AUDIO
TITLE "Violette Tinte"
PERFORMER "Mnemonic"
FLAGS DCP
REM REPLAYGAIN_TRACK_GAIN -3.21 dB
REM REPLAYGAIN_TRACK_PEAK 0.988556
INDEX 00 04:40:68
FILE "04 Violette Tinte.flac" WAVE
INDEX 01 00:00:00
TRACK 05 AUDIO
TITLE "Neonweiße Leere"
PERFORMER "Mnemonic"
FLAGS DCP
REM REPLAYGAIN_TRACK_GAIN -5.40 dB
REM REPLAYGAIN_TRACK_PEAK 0.977234
INDEX 00 05:52:32
FILE "05 Neonweiße Leere.flac" WAVE
INDEX 01 00:00:00
TRACK 06 AUDIO
TITLE "Das verkaufte Lachen"
PERFORMER "Mnemonic"
FLAGS DCP
REM REPLAYGAIN_TRACK_GAIN -4.68 dB
REM REPLAYGAIN_TRACK_PEAK 0.988556
INDEX 00 05:09:40
FILE "06 Das verkaufte Lachen.flac" WAVE
INDEX 01 00:00:00
TRACK 07 AUDIO
TITLE "Abstraktes Gefühle"
PERFORMER "Mnemonic"
FLAGS DCP
REM REPLAYGAIN_TRACK_GAIN -5.73 dB
REM REPLAYGAIN_TRACK_PEAK 0.988556
INDEX 00 04:24:03
FILE "07 Abstraktes Gefühle.flac" WAVE
INDEX 01 00:00:00
TRACK 08 AUDIO
TITLE "Elend.Ende"
PERFORMER "Mnemonic"
FLAGS DCP
REM REPLAYGAIN_TRACK_GAIN -6.92 dB
REM REPLAYGAIN_TRACK_PEAK 0.988556
INDEX 00 05:44:08
FILE "08 Elend.Ende.flac" WAVE
INDEX 01 00:00:00
TRACK 09 AUDIO
TITLE "Zeitraffer"
PERFORMER "Mnemonic"
FLAGS DCP
REM REPLAYGAIN_TRACK_GAIN -5.44 dB
REM REPLAYGAIN_TRACK_PEAK 0.988556
INDEX 00 04:59:29
FILE "09 Zeitraffer.flac" WAVE
INDEX 01 00:00:00
TRACK 10 AUDIO
TITLE "Menschenlärm"
PERFORMER "Mnemonic"
FLAGS DCP
REM REPLAYGAIN_TRACK_GAIN -2.57 dB
REM REPLAYGAIN_TRACK_PEAK 0.988556
INDEX 00 05:57:51
FILE "10 Menschenlärm.flac" WAVE
INDEX 01 00:00:00
TRACK 11 AUDIO
TITLE "Weg von Mir"
PERFORMER "Mnemonic"
FLAGS DCP
REM REPLAYGAIN_TRACK_GAIN -2.76 dB
REM REPLAYGAIN_TRACK_PEAK 0.988556
INDEX 00 05:40:30
FILE "11 Weg von Mir.flac" WAVE
INDEX 01 00:00:00

Год выпуска: 2013
Продолжительность: 00:37:12
Треклист:

01. Scraps Of Melody (02:45)
02. Confused Character (07:03)
03. Tissue Of Lies (06:07)
04. Calmness (05:54)
05. Theatralik (05:23)
06. Trist (10:00)

-----------------------

DON'T MODIFY THIS FILE

-----------------------

PERFORMER: auCDtect Task Manager, ver. 1.5.1RC6 build 1.5.1.7
Copyright (c) 2008-2010 y-soft. All rights reserved
http://y-soft.org

ANALYZER: auCDtect: CD records authenticity detector, version 0.8.2
Copyright (c) 2004 Oleg Berngardt. All rights reserved.
Copyright (c) 2004 Alexander Djourik. All rights reserved.

FILE: 06. Trist.flac
Size: 65414654 Hash: 35C385BCA9B63B874B0A59A5F6767047 Accuracy: -m0
Conclusion: MPEG 79%
Signature: 69D788142EFA2E8765A51163C6E9FA2021DFA240
FILE: 05. Theatralik.flac
Size: 28475468 Hash: 0E7DDFCB04E9BF45B6024BD7F69AF6B1 Accuracy: -m0
Conclusion: CDDA 100%
Signature: 8A50600512089A7177359EA7E7106DD07CECFDA9
FILE: 04. Calmness.flac
Size: 41757800 Hash: 30E54D9E3F4BE41C7176C09F4BBF28A6 Accuracy: -m0
Conclusion: MPEG 79%
Signature: 95E46CA46CA41E936C3A9535D2B036CDD58F0E85
FILE: 03. Tissue Of Lies.flac
Size: 33185155 Hash: 2FBFBEB291CD8ECA3F471838018482BB Accuracy: -m0
Conclusion: CDDA 85%
Signature: 3E842B0D65BEDC5FA29B37C2940C6EFCC1DCDB13
FILE: 02. Confused Character.flac
Size: 51425926 Hash: BF990FC98CB0F89050028E5A177A7CD0 Accuracy: -m0
Conclusion: CDDA 62%
Signature: 2A46DF9E45570FDA306CF49849C9F09E263C7F2F
FILE: 01. Scraps Of Melody.flac
Size: 16970701 Hash: 5E6DCEDC64276C3F3DF4FA6AE413F586 Accuracy: -m0
Conclusion: CDDA 54%
Signature: E2B37C6516F83C29560FAFFDC101E24027F8FFFF

Год выпуска: 2013
Продолжительность: 01:05:11
Треклист:

01. Narcotic Monday (05:54)
02. Anxiety (06:50)
03. Rashomon Effect (05:52)
04. Cocoon (05:41)
05. A Room Full Of Happiness (06:12)
06. Escapism (07:38)
07. The Foolish (05:12)
08. Lament (05:49)
09. Suum Cuique (05:25)
10. Monologische Methode (05:16)
11. Valet (05:22)

-----------------------

DON'T MODIFY THIS FILE

-----------------------

PERFORMER: auCDtect Task Manager, ver. 1.5.1RC4 build 1.5.1.5
Copyright (c) 2008-2010 y-soft. All rights reserved
http://y-soft.org

ANALYZER: auCDtect: CD records authenticity detector, version 0.8.2
Copyright (c) 2004 Oleg Berngardt. All rights reserved.
Copyright (c) 2004 Alexander Djourik. All rights reserved.

FILE: Mnemonic - the air i breathe - 01 narcotic monday.flac
Size: 35118652 Hash: 633AEEEC245A32F3F20910C1BBD9F4A9 Accuracy: -m0
Conclusion: CDDA 100%
Signature: D72CC31C47AF4CFE739C9E8CFD24E6087F45F528
FILE: Mnemonic - the air i breathe - 02 anxiety.flac
Size: 38032249 Hash: 07274153610123A9873541B45C0450ED Accuracy: -m0
Conclusion: CDDA 100%
Signature: 67A69FF72282A6002DB20DF6A82200649454462E
FILE: Mnemonic - the air i breathe - 03 rashomon effect.flac
Size: 36763127 Hash: 5CD52191700515B6E5010CB2C7FDA239 Accuracy: -m0
Conclusion: CDDA 100%
Signature: 42565E4D0018EC732E6117F581B33E85A6453332
FILE: Mnemonic - the air i breathe - 04 cocoon.flac
Size: 32692665 Hash: 249723F3BFAE21EAAC801F35C29C4E0F Accuracy: -m0
Conclusion: CDDA 100%
Signature: F79E88DD936FC5B85673CA83FBFB6545448690D8
FILE: Mnemonic - the air i breathe - 05 a room full of happiness.flac
Size: 36259506 Hash: FDF3B5AE39F722315CCD7E1704BC6915 Accuracy: -m0
Conclusion: CDDA 99%
Signature: FE094349F177BA8828ED8398A9D6371EA53BD714
FILE: Mnemonic - the air i breathe - 06 escapism.flac
Size: 47097113 Hash: 444B8590B51F3057EE0B27EF6F064A76 Accuracy: -m0
Conclusion: CDDA 100%
Signature: C66DCB5EAECCCE6EB94D06990AB41C13A27EF023
FILE: Mnemonic - the air i breathe - 07 the foolish.flac
Size: 30033110 Hash: 166903C2C92BF581B067625DEEE67D9A Accuracy: -m0
Conclusion: CDDA 100%
Signature: 51E35284CDE3CCA2889B27C74343F9451872C757
FILE: Mnemonic - the air i breathe - 08 lament.flac
Size: 36084083 Hash: 45C8FAFEBA4DA1F58A662A252105BD39 Accuracy: -m0
Conclusion: CDDA 99%
Signature: 51242D1F4D1E71EEA8E571717DD8819D5DBA68D3
FILE: Mnemonic - the air i breathe - 09 suum cuique.flac
Size: 32791534 Hash: A95A34C1D3EB2F90A2ACC05DE882B404 Accuracy: -m0
Conclusion: CDDA 99%
Signature: 86BD48902FEB38368FC1E1389FFD289DEF24FB63
FILE: Mnemonic - the air i breathe - 10 monologische methode.flac
Size: 32103895 Hash: 7C29C44A072DE2775F9AEEE5608FF557 Accuracy: -m0
Conclusion: CDDA 99%
Signature: 75AB061CFE247ECD18B4A971DCCAED596879FFA6
FILE: Mnemonic - the air i breathe - 11 valet.flac
Size: 34767442 Hash: E784BA29EA6293965DA0B1E495ABEC86 Accuracy: -m0
Conclusion: CDDA 100%
Signature: 62275A459A92E6AFABFCD3D8204257115068E84F

Год выпуска: 2014
Продолжительность: 00:54:20
Треклист:

01. Small Matter (04:09)
02. Monument (04:30)
03. Grotesque (03:34)
04. Mutual Assured Destruction (03:45)
05. Bleiganz (04:14)
06. Facsimile (04:15)
07. Simple Man (04:18)
08. Manipulation Maneuver (04:26)
09. Opaque Meal (04:10)
10. All Is Lost (04:20)
11. Skepticism (03:38)
12. Tact (04:35)
13. Catharsis (04:26)

-----------------------

DON'T MODIFY THIS FILE

-----------------------

PERFORMER: auCDtect Task Manager, ver. 1.5.1RC4 build 1.5.1.5
Copyright (c) 2008-2010 y-soft. All rights reserved
http://y-soft.org

ANALYZER: auCDtect: CD records authenticity detector, version 0.8.2
Copyright (c) 2004 Oleg Berngardt. All rights reserved.
Copyright (c) 2004 Alexander Djourik. All rights reserved.

FILE: 01 small matter.flac
Size: 25719430 Hash: 615C513C11CDE890276C271F677DAFA4 Accuracy: -m0
Conclusion: CDDA 100%
Signature: 9A984551432F895CF3589CB61E7B0EAF0E6A841F
FILE: 02 monument.flac
Size: 31850628 Hash: CB5E6D57EED00EABAED3A5DE55ABB4EC Accuracy: -m0
Conclusion: CDDA 92%
Signature: 212B013F07354D120918599E349DFDC3FB0B9207
FILE: 03 grotesque.flac
Size: 21097822 Hash: 546A4558BB5C159C3FA676680B4664F2 Accuracy: -m0
Conclusion: CDDA 100%
Signature: 2B2C90743D0AB8ADE5145292815475EEE7664982
FILE: 04 mutual assured destruction.flac
Size: 23742649 Hash: BA245FB90F20818AB0E45AD10C736AD4 Accuracy: -m0
Conclusion: CDDA 100%
Signature: 7AAE9E6E8C29AC0C796D8DDDCBA1DE82A33B7458
FILE: 05 bleiglanz.flac
Size: 26431009 Hash: 03399CCE3013574153BE95758EC975BD Accuracy: -m0
Conclusion: CDDA 100%
Signature: 45479C226482D745D84606268462C668C56E6A22
FILE: 06 facsimile.flac
Size: 26877577 Hash: D907950301494C13E6C0D6952CCB8A35 Accuracy: -m0
Conclusion: CDDA 100%
Signature: 841B6015C15A18CBEFA1E432D8451A9524DEE4D2
FILE: 07 simple man.flac
Size: 28264145 Hash: 67C3ACE11CF48F9326B06E80AD78FE9D Accuracy: -m0
Conclusion: CDDA 92%
Signature: F5D79133F75D8088B835DB82B3E0F8B604A37805
FILE: 08 manipulation maneuver.flac
Size: 31891442 Hash: 417E3A97657A9F114F4AE6387D4AC54B Accuracy: -m0
Conclusion: CDDA 100%
Signature: 365FD171A6634FFE37F13184DEE5AF1F9D76D084
FILE: 09 opaque meal.flac
Size: 22637884 Hash: 3C880A48D3ADA1E7848336AD01EB8674 Accuracy: -m0
Conclusion: CDDA 100%
Signature: 2EFFB78DFE44998E0476BCA58DB7387B3A0C01C1
FILE: 10 all is lost.flac
Size: 28124423 Hash: A23120DD8815AF899781A68B3B93B2AC Accuracy: -m0
Conclusion: CDDA 100%
Signature: D1BA2876250C94331E92121D68BF6D222854883C
FILE: 11 skepticism.flac
Size: 21496730 Hash: 225A79D85C374776F79978CEAC6CB256 Accuracy: -m0
Conclusion: CDDA 94%
Signature: 1442007612F6E7D5C8C9B6D1179635EC0FE3562B
FILE: 12 tact.flac
Size: 24936865 Hash: B57C02CDAB7B751C2EAC6A66903118B0 Accuracy: -m0
Conclusion: CDDA 100%
Signature: 1B66292618FA62B3DAEE74DA7925F544F84B26AD
FILE: 13 catharsis.flac
Size: 26940224 Hash: 8A2A53ED3DFD8B87B3E37563A1A92E1E Accuracy: -m0
Conclusion: CDDA 100%
Signature: 96E9EF621CDF80A84C1566F23663AFAEFC041FA8

Год выпуска: 2016
Продолжительность: 01:05:13
Треклист:

01. Moral (06:02)
02. Analyst (05:02)
03. Trivial (04:54)
04. Pedant (05:32)
05. Polemik (04:49)
06. Fragilitat (05:17)
07. Asthet (05:20)
08. Disziplin (04:49)
09. Routine (05:36)
10. Purist (05:54)
11. Allmacht (05:08)
12. Eidetik (04:03)
13. Individuum (02:47)

-----------------------

DON'T MODIFY THIS FILE

-----------------------

PERFORMER: auCDtect Task Manager, ver. 1.6.0 RC1 build 1.6.0.1
Copyright (c) 2008-2010 y-soft. All rights reserved
http://y-soft.org

ANALYZER: auCDtect: CD records authenticity detector, version 0.8.2
Copyright (c) 2004 Oleg Berngardt. All rights reserved.
Copyright (c) 2004 Alexander Djourik. All rights reserved.

FILE: 13. Individuum.flac
Size: 16238999 Hash: FB2B486B8F08A359DF8BBF52D3CE63D9 Accuracy: -m0
Conclusion: CDDA 100%
Signature: 71C0249F42CCF6E9ECE5C26287AD625DA8987E7A
FILE: 12. Eidetik.flac
Size: 25235618 Hash: 5E05766C7A827477B3FE145FFDC8754C Accuracy: -m0
Conclusion: CDDA 100%
Signature: 3E8024AC0A59205D2F5CBEA0E330523B7C439FED
FILE: 11. Allmacht.flac
Size: 31415488 Hash: CA6441B93569BC35C3F4E64D47820553 Accuracy: -m0
Conclusion: CDDA 100%
Signature: E52112B14D7929F8E7F6AE3309830D5D5D68C21F
FILE: 10. Purist.flac
Size: 42741486 Hash: E18CFAD6536BD3C2DF79E6643C5BBAD9 Accuracy: -m0
Conclusion: CDDA 100%
Signature: 2F1FBE062F908B41BA44D3ACDC84E18120FC509B
FILE: 09. Routine.flac
Size: 34768781 Hash: F838C45D777A17FBF90C8A53A0C3D581 Accuracy: -m0
Conclusion: CDDA 100%
Signature: 9E3D7221E946598D56E756321D6E16D4A348DD2A
FILE: 08. Disziplin.flac
Size: 36973668 Hash: 5DE8EAB34BDABB93884A61B70666A39E Accuracy: -m0
Conclusion: CDDA 100%
Signature: 92519D82915A3E6F2158E5B36BED49DEDF78C891
FILE: 07. Ästhet.flac
Size: 37491543 Hash: 824562D2013610E0D80CD1755FBA0EF3 Accuracy: -m0
Conclusion: CDDA 100%
Signature: 5AF8FBF2F967EA75DC00FC464CE76E3CB6E95AD8
FILE: 06. Fragilität.flac
Size: 33075376 Hash: F364D0A77FA3BC919154305AAE75C0BE Accuracy: -m0
Conclusion: CDDA 100%
Signature: 09B8976AA15C7E8C8F5C7DC050F9AF466F0CFFCD
FILE: 05. Polemik.flac
Size: 33394913 Hash: 2CCB13E42506D8E754422B5E10B371CF Accuracy: -m0
Conclusion: CDDA 100%
Signature: EF346577E1E8EE58E72EC4B620DDB9F89794EA4C
FILE: 04. Pedant.flac
Size: 36296609 Hash: 5F8DD184778EE86E11FA21844FB161E9 Accuracy: -m0
Conclusion: CDDA 100%
Signature: B9A3B32766C96A5AE4DC4C8B23491262AB6F4EEA
FILE: 03. Trivial.flac
Size: 27189710 Hash: 19E01F2B7C4E99D2C6969FF167C2C6CC Accuracy: -m0
Conclusion: CDDA 100%
Signature: 44E1E3BEAE06A4C3CFB0231B91F6BAB111D91850
FILE: 02. Analyst.flac
Size: 30886984 Hash: 3EF211AC9D7F2E71E7CE24F4689130C6 Accuracy: -m0
Conclusion: CDDA 100%
Signature: F603D4676061ABEB205EF59B764E8CCB8EC5E09B
FILE: 01. Moral.flac
Size: 43385279 Hash: 522FD0E0ACEB7D5ABE1A1513F1F603D0 Accuracy: -m0
Conclusion: CDDA 100%
Signature: C3C52FA0C545DB96535B42D9BFDF2DCD7E5ED258

Год выпуска: 2007
Продолжительность: 01:03:58+00:47:25
Треклист:

CD1 Arctic Museum
01. Im Hafen (05:30)
02. Leinen Los (06:12)
03. Arctic Museum (04:56)
04. Volle Fahrt (04:29)
05. Eiswasser (06:08)
06. Unter Null (07:54)
07. Eisberg (04:11)
08. Tauchgang (03:52)
09. Ewiges Eis (06:32)
10. Seenot (05:59)
11. Land In Sicht (08:15)

CD2 Re-paired Museum
01. Im Hafen (Mnemonic Rmx) (05:30)
02. Leinen Los (Fjernlys Rmx) (06:24)
03. Eisberg (Nerthus Rmx) (09:47)
04. Tauchgang (112bpm Rmx By Antlers Mulm) (04:56)
05. Seenot (Llvspll Rmx) (07:21)
06. Leinen Los (Der Traum Vom Fliegen Rmx By Polygon) (07:29)
07. Leinen Los (Alarmen Remix) (05:58)

Exact Audio Copy V0.99 prebeta 4 from 23. January 2008

EAC extraction logfile from 31. October 2008, 15:36

Architrav / Arctic Museum

Used drive : _NEC DVD+-RW ND-6650A Adapter: 2 ID: 0

Read mode : Secure
Utilize accurate stream : Yes
Defeat audio cache : Yes
Make use of C2 pointers : No

Read offset correction : 48
Overread into Lead-In and Lead-Out : No
Fill up missing offset samples with silence : Yes
Delete leading and trailing silent blocks : No
Null samples used in CRC calculations : Yes
Used interface : Installed external ASPI interface
Gap handling : Appended to previous track

Used output format : User Defined Encoder
Selected bitrate : 1024 kBit/s
Quality : High
Add ID3 tag : No
Command line compressor : C:\Program Files\Exact Audio Copy2\Flac\flac.exe
Additional command line options : -8 -V -T "ARTIST=%a" -T "TITLE=%t" -T "ALBUM=%g" -T "DATE=%y" -T "TRACKNUMBER=%n" -T "GENRE=%m" -T "COMMENT=%e" %s -o %d

TOC of the extracted CD

Track | Start | Length | Start sector | End sector
---------------------------------------------------------
1 | 0:00.00 | 5:30.08 | 0 | 24757
2 | 5:30.08 | 6:11.49 | 24758 | 52631
3 | 11:41.57 | 4:56.04 | 52632 | 74835
4 | 16:37.61 | 4:29.20 | 74836 | 95030
5 | 21:07.06 | 6:08.09 | 95031 | 122639
6 | 27:15.15 | 7:53.66 | 122640 | 158180
7 | 35:09.06 | 4:11.13 | 158181 | 177018
8 | 39:20.19 | 3:52.08 | 177019 | 194426
9 | 43:12.27 | 6:32.07 | 194427 | 223833
10 | 49:44.34 | 5:58.57 | 223834 | 250740
11 | 55:43.16 | 8:14.58 | 250741 | 287848

Track 1

Filename C:\EAC\01-01 , Im Hafen (Master).wav

Pre-gap length 0:00:02.00

Peak level 98.8 %
Track quality 100.0 %
Test CRC D29A1953
Copy CRC D29A1953
Copy OK

Track 2

Filename C:\EAC\02-02 , Leinen Los (Master).wav

Pre-gap length 0:00:02.00

Peak level 98.8 %
Track quality 100.0 %
Test CRC 4804FF35
Copy CRC 4804FF35
Copy OK

Track 3

Filename C:\EAC\03-03 , Arctic Museum (Master).wav

Pre-gap length 0:00:02.00

Peak level 95.7 %
Track quality 100.0 %
Test CRC 2C52EA5B
Copy CRC 2C52EA5B
Copy OK

Track 4

Filename C:\EAC\04-04 , Volle Fahrt (Master).wav

Pre-gap length 0:00:02.00

Peak level 98.4 %
Track quality 100.0 %
Test CRC 755676A0
Copy CRC 755676A0
Copy OK

Track 5

Filename C:\EAC\05-05 , Eiswasser (Master).wav

Pre-gap length 0:00:02.00

Peak level 98.8 %
Track quality 100.0 %
Test CRC 70E0C205
Copy CRC 70E0C205
Copy OK

Track 6

Filename C:\EAC\06-06 , Unter Null (Master).wav

Pre-gap length 0:00:02.00

Peak level 81.5 %
Track quality 99.9 %
Test CRC 67F6A8E1
Copy CRC 67F6A8E1
Copy OK

Track 7

Filename C:\EAC\07-07 , Eisberg (Master).wav

Pre-gap length 0:00:02.00

Peak level 75.4 %
Track quality 100.0 %
Test CRC D50F4120
Copy CRC D50F4120
Copy OK

Track 8

Filename C:\EAC\08-08 , Tauchgang (Master).wav

Pre-gap length 0:00:02.00

Peak level 98.8 %
Track quality 99.9 %
Test CRC 30D4EBD3
Copy CRC 30D4EBD3
Copy OK

Track 9

Filename C:\EAC\09-09 , Ewiges Eis (Master).wav

Pre-gap length 0:00:02.00

Peak level 98.8 %
Track quality 100.0 %
Test CRC 7018B114
Copy CRC 7018B114
Copy OK

Track 10

Filename C:\EAC\10-10 , Seenot (Master).wav

Pre-gap length 0:00:02.00

Peak level 83.9 %
Track quality 99.8 %
Test CRC 87C6F9D8
Copy CRC 87C6F9D8
Copy OK

Track 11

Filename C:\EAC\11-11 , Land In Sicht (Master).wav

Pre-gap length 0:00:02.00

Peak level 98.8 %
Track quality 99.9 %
Test CRC 575B1E40
Copy CRC 575B1E40
Copy OK

No errors occurred

End of status report
-------------------------------------------------------------------------

Exact Audio Copy V0.99 prebeta 4 from 23. January 2008

EAC extraction logfile from 31. October 2008, 16:14

Architrav / Repaired museum

Used drive : _NEC DVD+-RW ND-6650A Adapter: 2 ID: 0

Read mode : Secure
Utilize accurate stream : Yes
Defeat audio cache : Yes
Make use of C2 pointers : No

Read offset correction : 48
Overread into Lead-In and Lead-Out : No
Fill up missing offset samples with silence : Yes
Delete leading and trailing silent blocks : No
Null samples used in CRC calculations : Yes
Used interface : Installed external ASPI interface
Gap handling : Appended to previous track

Used output format : User Defined Encoder
Selected bitrate : 1024 kBit/s
Quality : High
Add ID3 tag : No
Command line compressor : C:\Program Files\Exact Audio Copy2\Flac\flac.exe
Additional command line options : -8 -V -T "ARTIST=%a" -T "TITLE=%t" -T "ALBUM=%g" -T "DATE=%y" -T "TRACKNUMBER=%n" -T "GENRE=%m" -T "COMMENT=%e" %s -o %d

TOC of the extracted CD

Track | Start | Length | Start sector | End sector
---------------------------------------------------------
1 | 0:00.00 | 5:30.08 | 0 | 24757
2 | 5:30.08 | 6:24.11 | 24758 | 53568
3 | 11:54.19 | 9:47.33 | 53569 | 97626
4 | 21:41.52 | 4:55.42 | 97627 | 119793
5 | 26:37.19 | 7:21.06 | 119794 | 152874
6 | 33:58.25 | 7:29.35 | 152875 | 186584
7 | 41:27.60 | 5:58.09 | 186585 | 213443

Track 1

Filename C:\EAC\01-01 , Im Hafen (Mnemonic Rmx) (Master).wav

Pre-gap length 0:00:02.00

Peak level 98.8 %
Track quality 100.0 %
Test CRC 1E30BA79
Copy CRC 1E30BA79
Copy OK

Track 2

Filename C:\EAC\02-02 , Leinen Los (Fjernlys-Rmx) (Master).wav

Pre-gap length 0:00:02.00

Peak level 98.8 %
Track quality 100.0 %
Test CRC F2B30A89
Copy CRC F2B30A89
Copy OK

Track 3

Filename C:\EAC\03-03 , Eisberg (Nerthus Rmx) (Master).wav

Pre-gap length 0:00:02.00

Peak level 98.8 %
Track quality 100.0 %
Test CRC D9579554
Copy CRC D9579554
Copy OK

Track 4

Filename C:\EAC\04-04 , Tauchgang (112Bpm-Rmx By Antlers Mulm) (Master).wav

Pre-gap length 0:00:02.00

Peak level 98.8 %
Track quality 100.0 %
Test CRC 3301F625
Copy CRC 3301F625
Copy OK

Track 5

Filename C:\EAC\05-05 , Seenot (Llvspll Rmx) (Master).wav

Pre-gap length 0:00:02.00

Peak level 98.8 %
Track quality 100.0 %
Test CRC 88E05365
Copy CRC 88E05365
Copy OK

Track 6

Filename C:\EAC\06-06 , Leinen Los (Der Traum Vom Fliegen Rmx By Polygon) (Master).wav

Pre-gap length 0:00:02.00

Peak level 98.8 %
Track quality 100.0 %
Test CRC 75AD1DF9
Copy CRC 75AD1DF9
Copy OK

Track 7

Filename C:\EAC\07-07 , Leinen Los (Obligatorisch Zu Hчren Rmx By Alarmen) (Master).wav

Pre-gap length 0:00:02.00

Peak level 98.8 %
Track quality 100.0 %
Test CRC C4117CA1
Copy CRC C4117CA1
Copy OK

No errors occurred

End of status report


REM GENRE IDM
REM DATE 2007
REM DISCID A00EFD0B
REM COMMENT "ExactAudioCopy v0.99pb4"
REM DISCNUMBER 1
PERFORMER Architrav
TITLE "Arctic Museum"
FILE "01. Im Hafen.flac" WAVE
TRACK 1 AUDIO
TITLE "Im Hafen"
PERFORMER Architrav
INDEX 01 00:00:00
FILE "02. Leinen Los.flac" WAVE
TRACK 2 AUDIO
TITLE "Leinen Los"
PERFORMER Architrav
INDEX 01 00:00:00
FILE "03. Arctic Museum.flac" WAVE
TRACK 3 AUDIO
TITLE "Arctic Museum"
PERFORMER Architrav
INDEX 01 00:00:00
FILE "04. Volle Fahrt.flac" WAVE
TRACK 4 AUDIO
TITLE "Volle Fahrt"
PERFORMER Architrav
INDEX 01 00:00:00
FILE "05. Eiswasser.flac" WAVE
TRACK 5 AUDIO
TITLE Eiswasser
PERFORMER Architrav
INDEX 01 00:00:00
FILE "06. Unter Null.flac" WAVE
TRACK 6 AUDIO
TITLE "Unter Null"
PERFORMER Architrav
INDEX 01 00:00:00
FILE "07. Eisberg.flac" WAVE
TRACK 7 AUDIO
TITLE Eisberg
PERFORMER Architrav
INDEX 01 00:00:00
FILE "08. Tauchgang.flac" WAVE
TRACK 8 AUDIO
TITLE Tauchgang
PERFORMER Architrav
INDEX 01 00:00:00
FILE "09. Ewiges Eis.flac" WAVE
TRACK 9 AUDIO
TITLE "Ewiges Eis"
PERFORMER Architrav
INDEX 01 00:00:00
FILE "10. Seenot.flac" WAVE
TRACK 10 AUDIO
TITLE Seenot
PERFORMER Architrav
INDEX 01 00:00:00
FILE "11. Land In Sicht.flac" WAVE
TRACK 11 AUDIO
TITLE "Land In Sicht"
PERFORMER Architrav
INDEX 01 00:00:00
---------------------------------------------------------

REM GENRE IDM
REM DATE 2007
REM DISCID 540B1D07
REM COMMENT "ExactAudioCopy v0.99pb4"
REM DISCNUMBER 2
PERFORMER Architrav
TITLE "Arctic Museum"
FILE "01. Im Hafen (Mnemonic Rmx).flac" WAVE
TRACK 1 AUDIO
TITLE "Im Hafen (Mnemonic Rmx)"
PERFORMER Architrav
INDEX 01 00:00:00
FILE "02. Leinen Los (Fjernlys Rmx).flac" WAVE
TRACK 2 AUDIO
TITLE "Leinen Los (Fjernlys Rmx)"
PERFORMER Architrav
INDEX 01 00:00:00
FILE "03. Eisberg (Nerthus Rmx).flac" WAVE
TRACK 3 AUDIO
TITLE "Eisberg (Nerthus Rmx)"
PERFORMER Architrav
INDEX 01 00:00:00
FILE "04. Tauchgang (112bpm Rmx By Antlers Mulm).flac" WAVE
TRACK 4 AUDIO
TITLE "Tauchgang (112Bpm Rmx By Antlers Mulm)"
PERFORMER Architrav
INDEX 01 00:00:00
FILE "05. Seenot (Llvspll Rmx).flac" WAVE
TRACK 5 AUDIO
TITLE "Seenot (Llvspll Rmx)"
PERFORMER Architrav
INDEX 01 00:00:00
FILE "06. Leinen Los (Der Traum Vom Fliegen Rmx By Polygon).flac" WAVE
TRACK 6 AUDIO
TITLE "Leinen Los (Der Traum Vom Fliegen Rmx By Polygon)"
PERFORMER Architrav
INDEX 01 00:00:00
FILE "07. Leinen Los (Alarmen Remix).flac" WAVE
TRACK 7 AUDIO
TITLE "Leinen Los (Alarmen Remix)"
PERFORMER Architrav
INDEX 01 00:00:00

Год выпуска: 2011
Продолжительность: 01:09:10
Треклист:

01. L’Heure Verte (08:00)
02. Bon Extrait D?Absinthe (04:46)
03. Thujon (06:21)
04. Artemisia Absinthium (05:54)
05. Absintheure (05:35)
06. Van Gogh (08:03)
07. Ritual (04:51)
08. La Fee Verte (06:27)
09. Halluzinative Strahlkraft (06:44)
10. ...Und Ich Sah Wie Die Schmetterlinge Tanzten (06:40)
11. Der Rausch Als Inspiration (05:49)

-----------------------

DON'T MODIFY THIS FILE

-----------------------

PERFORMER: auCDtect Task Manager, ver. 1.5.1RC4 build 1.5.1.5
Copyright (c) 2008-2010 y-soft. All rights reserved
http://y-soft.org

ANALYZER: auCDtect: CD records authenticity detector, version 0.8.2
Copyright (c) 2004 Oleg Berngardt. All rights reserved.
Copyright (c) 2004 Alexander Djourik. All rights reserved.

FILE: 01 L’Heure Verte.flac
Size: 45646100 Hash: D2C1DAFBD8F1F381FCA6F1CC4632658D Accuracy: -m0
Conclusion: CDDA 100%
Signature: 470A2EB7DE3913330481F036E3CF9612999C759C
FILE: 02 Bon Extrait D´Absinthe.flac
Size: 28317382 Hash: D973E7F421281AFBCC7EF357EFED3982 Accuracy: -m0
Conclusion: CDDA 62%
Signature: 0214FF8F75470057AEC0195B0D566578D52FF3B4
FILE: 03 Thujon.flac
Size: 35505837 Hash: 944A5316A20B1DFB613402CAB179F0AE Accuracy: -m0
Conclusion: CDDA 100%
Signature: 396706A6EB7A513A6D258AE9504C2F35FF4F62FF
FILE: 04 Artemisia Absinthium.flac
Size: 34862263 Hash: 412FD86B3A33F3A205FED4EF30DD32C5 Accuracy: -m0
Conclusion: CDDA 100%
Signature: 64DEC89A6265DD522D309D466F37E358D656F904
FILE: 05 Absintheure.flac
Size: 35666353 Hash: 2F814B12BC9DD45E92C9427838F79C0A Accuracy: -m0
Conclusion: CDDA 100%
Signature: C5187BE5B8311E65605F0350178BE2CB209D051A
FILE: 06 Van Gogh.flac
Size: 46468194 Hash: 21565673925D1110EAA6E7F6644E93D6 Accuracy: -m0
Conclusion: CDDA 100%
Signature: 830E94C9E7E39D4E5F495F0869F9CC3AF6ADFBEE
FILE: 07 Ritual.flac
Size: 32566837 Hash: F2C400805F1B07556398F779EF716F1E Accuracy: -m0
Conclusion: CDDA 100%
Signature: 274016794AFBD7B4C361F545988205F0B4A2BCA2
FILE: 08 La Fée Verte.flac
Size: 44348248 Hash: B1EEED7DE99ECC26A7BD4693953CB671 Accuracy: -m0
Conclusion: CDDA 100%
Signature: 9C504B049143A829F3BE99C651A94784EF3918DD
FILE: 09 Halluzinative Strahlkraft.flac
Size: 40844323 Hash: 7875DDF2BF24E2CFC36AABFBE659D5A1 Accuracy: -m0
Conclusion: CDDA 100%
Signature: 5637BAF364C7A3A3139E642E9FE4DF7166441558
FILE: 10 ...Und Ich Sah Wie Die Schmetterlinge Tanzten.flac
Size: 43723909 Hash: 5AB986B7C0757A320DCDFD73013DB73D Accuracy: -m0
Conclusion: CDDA 100%
Signature: BB7225F9BA0ABC463855E4EB71A4B1CE6E9E3AFB
FILE: 11 Der Rausch Als Inspiration.flac
Size: 38602217 Hash: 3F2D8A87526CDA8E06EB9DE49D0AC7B3 Accuracy: -m0
Conclusion: CDDA 100%
Signature: 3430799ED38ECF880DF36872454749266AEF6344

Год выпуска: 2013
Продолжительность: 00:49:22
Треклист:

01. Diele (18:06)
02. Marode (21:00)
03. Moder (10:16)

-----------------------

DON'T MODIFY THIS FILE

-----------------------

PERFORMER: auCDtect Task Manager, ver. 1.5.1RC4 build 1.5.1.5
Copyright (c) 2008-2010 y-soft. All rights reserved
http://y-soft.org

ANALYZER: auCDtect: CD records authenticity detector, version 0.8.2
Copyright (c) 2004 Oleg Berngardt. All rights reserved.
Copyright (c) 2004 Alexander Djourik. All rights reserved.

FILE: Architrav - marode - 01 diele.flac
Size: 111681436 Hash: C2FC7794B076052F0D12D6132B38E8EB Accuracy: -m0
Conclusion: CDDA 100%
Signature: 14FE74E08A490A98E00520EEADCAC0FA95423286
FILE: Architrav - marode - 02 marode.flac
Size: 122790258 Hash: C93194F7BF2E9E635D24C54EF82C81DD Accuracy: -m0
Conclusion: CDDA 99%
Signature: EA3230490312E278BC232A58E51C769A0100947D
FILE: Architrav - marode - 03 moder.flac
Size: 64690383 Hash: 90E199B9FD548E7A9D30CDC1D208496E Accuracy: -m0
Conclusion: CDDA 100%
Signature: 87B156985AF6469BB109328DCC69B36B92E6E5C0

Год выпуска: 2009
Продолжительность: 00:49:05
Треклист:

01. 35 - Minutes - Meditation With A Shaolin Monk (04:46)
02. A Tattoo From Amsterdam (05:35)
03. Attention! The Colour Is Bleeding (04:49)
04. I've Killed A Radio Star (04:43)
05. Mafiaparty, Nice You Were There! (04:44)
06. My Little Bird Died On A Rainy (04:46)
07. Sunny Days Got You Down? (05:04)
08. The Corpulent Cowboy (04:13)
09. We Are No Very Important Persons (04:08)
10. Whisky Is A Good God (04:21)
11. The Last Gambit (01:56)

Exact Audio Copy V0.99 prebeta 5 from 4. May 2009

EAC extraction logfile from 1. January 2010, 18:15

the last gambit / mafiaparty, nice you were there!

Used drive : ASUS CRW-5232AS Adapter: 1 ID: 0

Read mode : Secure
Utilize accurate stream : Yes
Defeat audio cache : Yes
Make use of C2 pointers : No

Read offset correction : 6
Overread into Lead-In and Lead-Out : No
Fill up missing offset samples with silence : Yes
Delete leading and trailing silent blocks : No
Null samples used in CRC calculations : Yes
Used interface : Native Win32 interface for Win NT & 2000
Gap handling : Appended to previous track

Used output format : User Defined Encoder
Selected bitrate : 1024 kBit/s
Quality : High
Add ID3 tag : No
Command line compressor : C:\Program Files\Exact Audio Copy\Flac\flac.exe
Additional command line options : -8 -V -T "ARTIST=%a" -T "TITLE=%t" -T "ALBUM=%g" -T "DATE=%y" -T "TRACKNUMBER=%n" -T "GENRE=%m" -T "COMMENT=EAC FLAC -8" %s

TOC of the extracted CD

Track | Start | Length | Start sector | End sector
---------------------------------------------------------
1 | 0:00.00 | 4:45.71 | 0 | 21445
2 | 4:45.71 | 5:35.17 | 21446 | 46587
3 | 10:21.13 | 4:48.38 | 46588 | 68225
4 | 15:09.51 | 4:43.06 | 68226 | 89456
5 | 19:52.57 | 4:44.26 | 89457 | 110782
6 | 24:37.08 | 4:46.32 | 110783 | 132264
7 | 29:23.40 | 5:03.53 | 132265 | 155042
8 | 34:27.18 | 4:13.35 | 155043 | 174052
9 | 38:40.53 | 4:07.58 | 174053 | 192635
10 | 42:48.36 | 4:21.01 | 192636 | 212211
11 | 47:09.37 | 1:56.33 | 212212 | 220944

Track 1

Filename D:\the last gambit - mafiaparty, nice you were there!\01 - 35 - minutes - meditation with a shaolin monk.wav

Pre-gap length 0:00:02.00

Peak level 98.8 %
Track quality 100.0 %
Test CRC BDA7CA3C
Copy CRC BDA7CA3C
Track not present in AccurateRip database
Copy OK

Track 2

Filename D:\the last gambit - mafiaparty, nice you were there!\02 - a tattoo from amsterdam.wav

Pre-gap length 0:00:02.00

Peak level 98.8 %
Track quality 100.0 %
Test CRC 86D3D851
Copy CRC 86D3D851
Track not present in AccurateRip database
Copy OK

Track 3

Filename D:\the last gambit - mafiaparty, nice you were there!\03 - attention! the colour is bleeding.wav

Pre-gap length 0:00:02.00

Peak level 98.8 %
Track quality 100.0 %
Test CRC D13DDE14
Copy CRC D13DDE14
Track not present in AccurateRip database
Copy OK

Track 4

Filename D:\the last gambit - mafiaparty, nice you were there!\04 - i've killed a radio star.wav

Pre-gap length 0:00:02.00

Peak level 98.8 %
Track quality 100.0 %
Test CRC F44DC2DD
Copy CRC F44DC2DD
Track not present in AccurateRip database
Copy OK

Track 5

Filename D:\the last gambit - mafiaparty, nice you were there!\05 - mafiaparty, nice you were there!.wav

Pre-gap length 0:00:02.00

Peak level 98.8 %
Track quality 100.0 %
Test CRC 5EDC1572
Copy CRC 5EDC1572
Track not present in AccurateRip database
Copy OK

Track 6

Filename D:\the last gambit - mafiaparty, nice you were there!\06 - my little bird died on a rainy.wav

Pre-gap length 0:00:02.00

Peak level 98.8 %
Track quality 100.0 %
Test CRC 88F32EF5
Copy CRC 88F32EF5
Track not present in AccurateRip database
Copy OK

Track 7

Filename D:\the last gambit - mafiaparty, nice you were there!\07 - sunny days got you down .wav

Pre-gap length 0:00:02.00

Peak level 98.8 %
Track quality 100.0 %
Test CRC 2CC3178D
Copy CRC 2CC3178D
Track not present in AccurateRip database
Copy OK

Track 8

Filename D:\the last gambit - mafiaparty, nice you were there!\08 - the corpulent cowboy.wav

Pre-gap length 0:00:02.00

Peak level 98.8 %
Track quality 100.0 %
Test CRC 7AF571DC
Copy CRC 7AF571DC
Track not present in AccurateRip database
Copy OK

Track 9

Filename D:\the last gambit - mafiaparty, nice you were there!\09 - we are no very important persons.wav

Pre-gap length 0:00:02.00

Peak level 98.8 %
Track quality 100.0 %
Test CRC 857DD714
Copy CRC 857DD714
Track not present in AccurateRip database
Copy OK

Track 10

Filename D:\the last gambit - mafiaparty, nice you were there!\10 - whisky is a good god.wav

Pre-gap length 0:00:02.00

Peak level 98.8 %
Track quality 99.9 %
Test CRC C565F60F
Copy CRC C565F60F
Track not present in AccurateRip database
Copy OK

Track 11

Filename D:\the last gambit - mafiaparty, nice you were there!\11 - the last gambit.wav

Pre-gap length 0:00:02.00

Peak level 69.9 %
Track quality 100.0 %
Test CRC DE979CEC
Copy CRC DE979CEC
Track not present in AccurateRip database
Copy OK

None of the tracks are present in the AccurateRip database

No errors occurred

End of status report


REM GENRE idm
REM DATE 2009
REM DISCID 960B810B
REM COMMENT "ExactAudioCopy v0.99pb5"
PERFORMER "the last gambit"
TITLE "mafiaparty, nice you were there!"
FILE "01 - 35 - minutes - meditation with a shaolin monk.wav" WAVE
TRACK 01 AUDIO
TITLE "35 - minutes - meditation with a shaolin monk"
PERFORMER "the last gambit"
FLAGS DCP
INDEX 01 00:00:00
TRACK 02 AUDIO
TITLE "a tattoo from amsterdam"
PERFORMER "the last gambit"
FLAGS DCP
INDEX 00 04:43:71
FILE "02 - a tattoo from amsterdam.wav" WAVE
INDEX 01 00:00:00
TRACK 03 AUDIO
TITLE "attention! the colour is bleeding"
PERFORMER "the last gambit"
FLAGS DCP
INDEX 00 05:33:17
FILE "03 - attention! the colour is bleeding.wav" WAVE
INDEX 01 00:00:00
TRACK 04 AUDIO
TITLE "i've killed a radio star"
PERFORMER "the last gambit"
FLAGS DCP
INDEX 00 04:46:38
FILE "04 - i've killed a radio star.wav" WAVE
INDEX 01 00:00:00
TRACK 05 AUDIO
TITLE "mafiaparty, nice you were there!"
PERFORMER "the last gambit"
FLAGS DCP
INDEX 00 04:41:06
FILE "05 - mafiaparty, nice you were there!.wav" WAVE
INDEX 01 00:00:00
TRACK 06 AUDIO
TITLE "my little bird died on a rainy"
PERFORMER "the last gambit"
FLAGS DCP
INDEX 00 04:42:26
FILE "06 - my little bird died on a rainy.wav" WAVE
INDEX 01 00:00:00
TRACK 07 AUDIO
TITLE "sunny days got you down?"
PERFORMER "the last gambit"
FLAGS DCP
INDEX 00 04:44:32
FILE "07 - sunny days got you down .wav" WAVE
INDEX 01 00:00:00
TRACK 08 AUDIO
TITLE "the corpulent cowboy"
PERFORMER "the last gambit"
FLAGS DCP
INDEX 00 05:01:53
FILE "08 - the corpulent cowboy.wav" WAVE
INDEX 01 00:00:00
TRACK 09 AUDIO
TITLE "we are no very important persons"
PERFORMER "the last gambit"
FLAGS DCP
INDEX 00 04:11:35
FILE "09 - we are no very important persons.wav" WAVE
INDEX 01 00:00:00
TRACK 10 AUDIO
TITLE "whisky is a good god"
PERFORMER "the last gambit"
FLAGS DCP
INDEX 00 04:05:58
FILE "10 - whisky is a good god.wav" WAVE
INDEX 01 00:00:00
TRACK 11 AUDIO
TITLE "the last gambit"
PERFORMER "the last gambit"
FLAGS DCP
INDEX 00 04:19:01
FILE "11 - the last gambit.wav" WAVE
INDEX 01 00:00:00

Год выпуска: 2011
Продолжительность: 01:02:12
Треклист:

01. If You Plan To Shoplift Let Us Know (05:35)
02. Worms Are Better Than Me (04:26)
03. Hero Cop Takes Plunge (05:37)
04. Leaky Window (05:03)
05. 12 Disgusting!!! Bugs (05:36)
06. One Rusty Old Water Heater (05:26)
07. Amazing Mono (04:37)
08. No Whistling In The House (04:52)
09. Do Not Enter Wrong Way (04:30)
10. We're O.K.! You're A Homicidal Maniac! (05:21)
11. Blofeld (07:04)
12. Der Schachspieler (04:05)

X Lossless Decoder version 20111015 (136.4)

XLD extraction logfile from 2012-02-17 10:42:16 -0600

The Last Gambit / Songs For People Who Like Us

Used drive : MATSHITA DVD-R UJ-898 (revision HC10)

Ripper mode : XLD Secure Ripper
Disable audio cache : OK for the drive with a cache less than 1375KiB
Make use of C2 pointers : NO
Read offset correction : 102
Max retry count : 100
Gap status : Analyzed, Appended (except HTOA)

TOC of the extracted CD
Track | Start | Length | Start sector | End sector
---------------------------------------------------------
1 | 00:00:00 | 05:35:13 | 0 | 25137
2 | 05:35:13 | 04:26:04 | 25138 | 45091
3 | 10:01:17 | 05:36:63 | 45092 | 70354
4 | 15:38:05 | 05:02:51 | 70355 | 93055
5 | 20:40:56 | 05:36:20 | 93056 | 118275
6 | 26:17:01 | 05:26:04 | 118276 | 142729
7 | 31:43:05 | 04:36:42 | 142730 | 163471
8 | 36:19:47 | 04:51:53 | 163472 | 185349
9 | 41:11:25 | 04:30:10 | 185350 | 205609
10 | 45:41:35 | 05:21:25 | 205610 | 229709
11 | 51:02:60 | 07:04:15 | 229710 | 261524
12 | 58:07:00 | 04:05:30 | 261525 | 279929

AccurateRip Summary
Disc not found in AccurateRip DB.

All Tracks
Album gain : -4.74 dB
Peak : 1.000000
Statistics
Read error : 0
Jitter error (maybe fixed) : 0
Retry sector count : 0
Damaged sector count : 0

Track 01
Filename : /Users/Owner1/Desktop/The Last Gambit - Songs For People Who Like Us (2011) [FLAC]/01 If You Plan To Shoplift Let Us Know.flac
Pre-gap length : 00:02:00

Track gain : -2.47 dB
Peak : 1.000000
CRC32 hash (test run) : B50B237D
CRC32 hash : B50B237D
CRC32 hash (skip zero) : 7CBEDBF6
AccurateRip signature : 7E5B4F21
->Track not present in AccurateRip database.
Statistics
Read error : 0
Jitter error (maybe fixed) : 0
Retry sector count : 0
Damaged sector count : 0

Track 02
Filename : /Users/Owner1/Desktop/The Last Gambit - Songs For People Who Like Us (2011) [FLAC]/02 Worms Are Better Than Me.flac

Track gain : -4.28 dB
Peak : 1.000000
CRC32 hash (test run) : 09DC3982
CRC32 hash : 09DC3982
CRC32 hash (skip zero) : 94AD140A
AccurateRip signature : 99DADE89
->Track not present in AccurateRip database.
Statistics
Read error : 0
Jitter error (maybe fixed) : 0
Retry sector count : 0
Damaged sector count : 0

Track 03
Filename : /Users/Owner1/Desktop/The Last Gambit - Songs For People Who Like Us (2011) [FLAC]/03 Hero Cop Takes Plunge.flac

Track gain : -4.95 dB
Peak : 1.000000
CRC32 hash (test run) : A569D228
CRC32 hash : A569D228
CRC32 hash (skip zero) : 45403691
AccurateRip signature : 9606D318
->Track not present in AccurateRip database.
Statistics
Read error : 0
Jitter error (maybe fixed) : 0
Retry sector count : 0
Damaged sector count : 0

Track 04
Filename : /Users/Owner1/Desktop/The Last Gambit - Songs For People Who Like Us (2011) [FLAC]/04 Leaky Window.flac

Track gain : -6.57 dB
Peak : 1.000000
CRC32 hash (test run) : 3D47BB7D
CRC32 hash : 3D47BB7D
CRC32 hash (skip zero) : 8BF12B3A
AccurateRip signature : 5E59A199
->Track not present in AccurateRip database.
Statistics
Read error : 0
Jitter error (maybe fixed) : 0
Retry sector count : 0
Damaged sector count : 0

Track 05
Filename : /Users/Owner1/Desktop/The Last Gambit - Songs For People Who Like Us (2011) [FLAC]/05 12 Disgusting!!!Bugs.flac

Track gain : -5.40 dB
Peak : 1.000000
CRC32 hash (test run) : 84A40E58
CRC32 hash : 84A40E58
CRC32 hash (skip zero) : 099A18B8
AccurateRip signature : 41835CA1
->Track not present in AccurateRip database.
Statistics
Read error : 0
Jitter error (maybe fixed) : 0
Retry sector count : 0
Damaged sector count : 0

Track 06
Filename : /Users/Owner1/Desktop/The Last Gambit - Songs For People Who Like Us (2011) [FLAC]/06 One Rusty Old Water Heater.flac

Track gain : -2.98 dB
Peak : 1.000000
CRC32 hash (test run) : 003B1DDD
CRC32 hash : 003B1DDD
CRC32 hash (skip zero) : AD8A45E0
AccurateRip signature : 518A3878
->Track not present in AccurateRip database.
Statistics
Read error : 0
Jitter error (maybe fixed) : 0
Retry sector count : 0
Damaged sector count : 0

Track 07
Filename : /Users/Owner1/Desktop/The Last Gambit - Songs For People Who Like Us (2011) [FLAC]/07 Amazing Mono.flac

Track gain : -4.46 dB
Peak : 1.000000
CRC32 hash (test run) : FB0AA7B9
CRC32 hash : FB0AA7B9
CRC32 hash (skip zero) : 207BF299
AccurateRip signature : 5A00A56F
->Track not present in AccurateRip database.
Statistics
Read error : 0
Jitter error (maybe fixed) : 0
Retry sector count : 0
Damaged sector count : 0

Track 08
Filename : /Users/Owner1/Desktop/The Last Gambit - Songs For People Who Like Us (2011) [FLAC]/08 No Whistling In The House.flac

Track gain : -6.37 dB
Peak : 1.000000
CRC32 hash (test run) : 056FC17D
CRC32 hash : 056FC17D
CRC32 hash (skip zero) : E026AAD3
AccurateRip signature : 560A2551
->Track not present in AccurateRip database.
Statistics
Read error : 0
Jitter error (maybe fixed) : 0
Retry sector count : 0
Damaged sector count : 0

Track 09
Filename : /Users/Owner1/Desktop/The Last Gambit - Songs For People Who Like Us (2011) [FLAC]/09 Do Not Enter Wrong Way.flac

Track gain : -4.35 dB
Peak : 1.000000
CRC32 hash (test run) : AB379B58
CRC32 hash : AB379B58
CRC32 hash (skip zero) : E0130E3E
AccurateRip signature : B9343552
->Track not present in AccurateRip database.
Statistics
Read error : 0
Jitter error (maybe fixed) : 0
Retry sector count : 0
Damaged sector count : 0

Track 10
Filename : /Users/Owner1/Desktop/The Last Gambit - Songs For People Who Like Us (2011) [FLAC]/10 We're O.K.! You're A Homicidal Maniac!.flac

Track gain : -2.99 dB
Peak : 1.000000
CRC32 hash (test run) : 196C08A9
CRC32 hash : 196C08A9
CRC32 hash (skip zero) : 0E6A54C7
AccurateRip signature : 7C8735C7
->Track not present in AccurateRip database.
Statistics
Read error : 0
Jitter error (maybe fixed) : 0
Retry sector count : 0
Damaged sector count : 0

Track 11
Filename : /Users/Owner1/Desktop/The Last Gambit - Songs For People Who Like Us (2011) [FLAC]/11 Blofeld.flac

Track gain : -2.43 dB
Peak : 0.572144
CRC32 hash (test run) : 965A6CAF
CRC32 hash : 965A6CAF
CRC32 hash (skip zero) : 9F5DB545
AccurateRip signature : 03D7F087
->Track not present in AccurateRip database.
Statistics
Read error : 0
Jitter error (maybe fixed) : 0
Retry sector count : 0
Damaged sector count : 0

Track 12
Filename : /Users/Owner1/Desktop/The Last Gambit - Songs For People Who Like Us (2011) [FLAC]/12 Der Schachspieler.flac

Track gain : -3.00 dB
Peak : 0.999176
CRC32 hash (test run) : D41D1CF8
CRC32 hash : D41D1CF8
CRC32 hash (skip zero) : B15C3720
AccurateRip signature : 8DCB57BD
->Track not present in AccurateRip database.
Statistics
Read error : 0
Jitter error (maybe fixed) : 0
Retry sector count : 0
Damaged sector count : 0

No errors occurred

End of status report


TITLE "Songs For People Who Like Us"
PERFORMER "The Last Gambit"
REM GENRE "Electronica"
REM DATE "2011"
REM DISCNUMBER 1
REM TOTALDISCS 1
REM DISCID A40E940C
REM REPLAYGAIN_ALBUM_GAIN -4.74 dB
REM REPLAYGAIN_ALBUM_PEAK 1.000000
FILE "01 If You Plan To Shoplift Let Us Know.flac" WAVE
TRACK 01 AUDIO
TITLE "If You Plan To Shoplift Let Us Know"
REM REPLAYGAIN_TRACK_GAIN -2.47 dB
REM REPLAYGAIN_TRACK_PEAK 1.000000
INDEX 01 00:00:00
FILE "02 Worms Are Better Than Me.flac" WAVE
TRACK 02 AUDIO
TITLE "Worms Are Better Than Me"
REM REPLAYGAIN_TRACK_GAIN -4.28 dB
REM REPLAYGAIN_TRACK_PEAK 1.000000
INDEX 01 00:00:00
FILE "03 Hero Cop Takes Plunge.flac" WAVE
TRACK 03 AUDIO
TITLE "Hero Cop Takes Plunge"
REM REPLAYGAIN_TRACK_GAIN -4.95 dB
REM REPLAYGAIN_TRACK_PEAK 1.000000
INDEX 01 00:00:00
FILE "04 Leaky Window.flac" WAVE
TRACK 04 AUDIO
TITLE "Leaky Window"
REM REPLAYGAIN_TRACK_GAIN -6.57 dB
REM REPLAYGAIN_TRACK_PEAK 1.000000
INDEX 01 00:00:00
FILE "05 12 Disgusting!!!Bugs.flac" WAVE
TRACK 05 AUDIO
TITLE "12 Disgusting!!!Bugs"
REM REPLAYGAIN_TRACK_GAIN -5.40 dB
REM REPLAYGAIN_TRACK_PEAK 1.000000
INDEX 01 00:00:00
FILE "06 One Rusty Old Water Heater.flac" WAVE
TRACK 06 AUDIO
TITLE "One Rusty Old Water Heater"
REM REPLAYGAIN_TRACK_GAIN -2.98 dB
REM REPLAYGAIN_TRACK_PEAK 1.000000
INDEX 01 00:00:00
FILE "07 Amazing Mono.flac" WAVE
TRACK 07 AUDIO
TITLE "Amazing Mono"
REM REPLAYGAIN_TRACK_GAIN -4.46 dB
REM REPLAYGAIN_TRACK_PEAK 1.000000
INDEX 01 00:00:00
FILE "08 No Whistling In The House.flac" WAVE
TRACK 08 AUDIO
TITLE "No Whistling In The House"
REM REPLAYGAIN_TRACK_GAIN -6.37 dB
REM REPLAYGAIN_TRACK_PEAK 1.000000
INDEX 01 00:00:00
FILE "09 Do Not Enter Wrong Way.flac" WAVE
TRACK 09 AUDIO
TITLE "Do Not Enter Wrong Way"
REM REPLAYGAIN_TRACK_GAIN -4.35 dB
REM REPLAYGAIN_TRACK_PEAK 1.000000
INDEX 01 00:00:00
FILE "10 We're O.K.! You're A Homicidal Maniac!.flac" WAVE
TRACK 10 AUDIO
TITLE "We're O.K.! You're A Homicidal Maniac!"
REM REPLAYGAIN_TRACK_GAIN -2.99 dB
REM REPLAYGAIN_TRACK_PEAK 1.000000
INDEX 01 00:00:00
FILE "11 Blofeld.flac" WAVE
TRACK 11 AUDIO
TITLE "Blofeld"
REM REPLAYGAIN_TRACK_GAIN -2.43 dB
REM REPLAYGAIN_TRACK_PEAK 0.572144
INDEX 01 00:00:00
FILE "12 Der Schachspieler.flac" WAVE
TRACK 12 AUDIO
TITLE "Der Schachspieler"
REM REPLAYGAIN_TRACK_GAIN -3.00 dB
REM REPLAYGAIN_TRACK_PEAK 0.999176
INDEX 01 00:00:00

Время раздачи: 12/7
 Торрент: Золотая раздача  Зарегистрирован
 
Зарегистрируйтесь и скачайте торрент!
69,1 KB
Free Leech
Примагнититься
 Зарегистрирован:   15 Апр 2018 18:21:13
 Размер:   7,66 GB  (
 Рейтинг:   4,9 (Голосов: 14)
 Поблагодарили:   61
 Проверка:   Оформление проверено модератором 15 Апр 2018 18:22:13
Как cкачать  ·  Как раздать  ·  Правильно оформить  ·  Поднять ратио!  
vilator ®
Модератор Музыки
RG Music
 
Стаж: 9 лет
Сообщений: 6996
Ratio: 119,493
Поблагодарили: 141468
100%
Откуда: Minsk
pirates.png
Обновление, заменены:
2004 Konstruktive Vergangenheitsbewältigung (CD)
2006 Monokultur (WEB)
на свежие идеальные рипы
Driweb
Стаж: 7 лет 8 мес.
Сообщений: 18
Ratio: 10,861
91.23%
Огромное спасибо!
vilator ®
Модератор Музыки
RG Music
 
Стаж: 9 лет
Сообщений: 6996
Ratio: 119,493
Поблагодарили: 141468
100%
Откуда: Minsk
pirates.png
Обновление:
2018 Aversionen (WEB)
Денис​00720​14​
Стаж: 1 год
Сообщений: 52
Ratio: 3,961
85.32%
vilator Спасибо! :респект:
vilator ®
Модератор Музыки
RG Music
 
Стаж: 9 лет
Сообщений: 6996
Ratio: 119,493
Поблагодарили: 141468
100%
Откуда: Minsk
pirates.png
Обновление:
Mnemonic - Identifikationsstörung (2001) заменил на расширенную версию
добавил Mnemonic - Nahtot (2004)

добавлен проект L.iet & Kurt Bogenholtz
Sleasy
Стаж: 6 лет 3 мес.
Сообщений: 4
Ratio: 1,066
100%
vilator
.....
vilator ®
Модератор Музыки
RG Music
 
Стаж: 9 лет
Сообщений: 6996
Ratio: 119,493
Поблагодарили: 141468
100%
Откуда: Minsk
pirates.png
Обновление:
Mnemonic - Identifikationsstörung (2001) CD
Показать сообщения:   
Начать новую тему   Ответить на тему    Торрент-трекер NNM-Club -> Electronic -> IDM (Lossless) Часовой пояс: GMT + 3
Страница 1 из 1

День смеха и юмора отмечается 1 апреля. В этот день принято шутить и разыгрывать друзей, коллег по работе, домашних, словом всех, с кем Вам предстоит увидеться в этот праздник – первое апреля. Первоапрельские розыгрыши, приколы на 1 апреля, первоапрельские шутки должны быть веселыми и безобидными. Приколы на 1 апреля, как правило, удаются в том случае, если человек забыл какой сегодня месяц и день, словом, забыл про 1 апреля – день смеха, шуток, день дурака.

Желаем Вам много улыбок и хорошего настроения в этот день!
С Уважением, администрация NNM-Club :)