Интеллигентный торрент-трекер
canvas not supported
Нас вместе: 4 331 361

Моя любовь / Monamour (2005) DVDRip


 
 
RSS
Начать новую тему   Ответить на тему    Торрент-трекер NNM-Club -> Зарубежное кино -> Зарубежные Фильмы (HD*Rip/LQ, DVDRip, SATRip, VHSRip)
Автор Сообщение
Don Mumia ®
V.I.P. - МаФиоЗи
Стаж: 10 лет 3 мес.
Сообщений: 1410
Ratio: 157,244
Поблагодарили: 32638
100%
israel.gif
Моя любовь / Monamour (2005) DVDRip
Жанр: Эротика, Мелодрама
Режиссер: Тинто Брасс
Актеры: Анна Жимская, Нела Лучич, Риккардо Мариино и др.

Описание:
Это история любви девушки из Венеции по имени Марта и француза Леона. Всего пять дней длится роман между Мартой и Леоном и их чувства с каждым днем становясь все сильнее. Но у Марты есть муж, который догадывается об увлечении своей жены...


Продолжительность: 01:32:34
Перевод: Двухголосый закадровый
Видеокодек: XviD
Битрейт видео: 1720 Kb/s
Размер кадра: 720x400
Качество видео: DVDRip
Аудиокодек: AC3
Битрейт аудио: 384 Kb/s
Время раздачи: 24/7
Код: выделить все

Общее
Полное имя                               : Monamour.avi
Формат                                   : AVI
Формат/Информация                        : Audio Video Interleave
Размер файла                             : 1,37 Гбайт
Продолжительность                        : 1 ч. 32 м.
Общий поток                              : 2114 Кбит/сек
Программа кодирования                    : VirtualDubMod 1.5.10.2 (build 2540/release)
Библиотека кодирования                   : VirtualDubMod build 2540/release

Видео
Идентификатор                            : 0
Формат                                   : MPEG-4 Visual
Профиль формата                          : Advanced Simple@L5
Параметр BVOP формата                    : 2
Параметр QPel формата                    : Нет
Параметр GMC формата                     : Без точки перехода
Параметр матрицы формата                 : Default (H.263)
Идентификатор кодека                     : XVID
Идентификатор кодека/Подсказка           : XviD
Продолжительность                        : 1 ч. 32 м.
Битрейт                                  : 1721 Кбит/сек
Ширина                                   : 720 пикселей
Высота                                   : 400 пикселей
Соотношение сторон                       : 16:9
Частота кадров                           : 23,976 (24000/1001) кадра/сек
Частота кадров в оригинале               : 23,976 (23976/1000) кадра/сек
Цветовое пространство                    : YUV
Субдискретизация насыщенности            : 4:2:0
Битовая глубина                          : 8 бит
Тип развёртки                            : Прогрессивная
Метод сжатия                             : С потерями
Бит/(Пиксели*Кадры)                      : 0.249
Размер потока                            : 1,11 Гбайт (81%)
Библиотека кодирования                   : XviD 1.2.0.dev47 (UTC 2006-11-01)

Аудио
Идентификатор                            : 1
Формат                                   : AC-3
Формат/Информация                        : Audio Coding 3
Параметр Endianness формата              : Big
Идентификатор кодека                     : 2000
Продолжительность                        : 1 ч. 32 м.
Вид битрейта                             : Постоянный
Битрейт                                  : 384 Кбит/сек
Каналы                                   : 6 каналов
Расположение каналов                     : Front: L C R, Side: L R, LFE
Частота                                  : 48,0 КГц
Частота кадров                           : 31,250 кадров/сек (1536 spf)
Битовая глубина                          : 16 бит
Метод сжатия                             : С потерями
Размер потока                            : 254 Мбайт (18%)
Выравнивание                             : Разделение по промежуткам
Продолжительность промежутка             : 42  мс. (1,00 видеокадр)
Время предзагрузки промежутка            : 500  мс.
ServiceKind/String                       : Complete Main
Скриншоты:
[NNM-Club.name]_[NNM-Club.info] Monamour.avi.torrent
 Торрент: Платиновая раздача  Зарегистрирован
 
Примагнититься

Скачать
 Зарегистрирован:   17 Июл 2017 18:57:54
 Размер:   1,37 GB  (
 Рейтинг:   4,6 (Голосов: 89)
 Поблагодарили:   442
 Проверка:   Оформление проверено модератором 17 Июл 2017 18:59:17
Как cкачать  ·  Как раздать  ·  Правильно оформить  ·  Поднять ратио!  
Don Mumia ®
V.I.P. - МаФиоЗи
Стаж: 10 лет 3 мес.
Сообщений: 1410
Ratio: 157,244
Поблагодарили: 32638
100%
israel.gif
Всем - Приятного просмотра =)
inteligent
Стаж: 10 лет 2 мес.
Сообщений: 58
Ratio: 1,669
81.23%
Откуда: Ireland
ireland.gif
Спасибо, классный фильм
Don Mumia ®
V.I.P. - МаФиоЗи
Стаж: 10 лет 3 мес.
Сообщений: 1410
Ratio: 157,244
Поблагодарили: 32638
100%
israel.gif
Раздаю =)
oleg-lotus
Стаж: 6 лет 8 мес.
Сообщений: 533
Ratio: 2,41
86.17%
Откуда: Odessa
ukraine.gif
Красивое порно и эротика в хорошем качестве!)

_________________
Лотерея! Пошкрябай монитор монеткой и получи 100$ ШКРЯБАТЬ_ЗДЕСЬ:██████████
Averkiy
Стаж: 4 года 8 мес.
Сообщений: 67
Ratio: 6,034
96.19%
На 2 скрине Ефим Шефрин? Талантливый человечище шутит, поёт, танцует теперь вот в эротику подался. =)
Показать сообщения:   
Начать новую тему   Ответить на тему    Торрент-трекер NNM-Club -> Зарубежное кино -> Зарубежные Фильмы (HD*Rip/LQ, DVDRip, SATRip, VHSRip) Часовой пояс: GMT + 3
Страница 1 из 1