Классический форум-трекер
canvas not supported
Нас вместе: 4 069 159

Матрос с Кометы (1958) TVRip


 
 
RSS
Начать новую тему   Ответить на тему    Торрент-трекер NNM-Club -> Классика кино и Старые фильмы до 90-х -> Отечественная Классика (HD*Rip/LQ, DVDRip, SATRip, VHSRip)
Автор Сообщение
valery_silver ®

Online
Стаж: 11 лет 3 мес.
Сообщений: 59
Ratio: 2,228
Поблагодарили: 1385
100%
Откуда: Россия
russia.gif
Матрос с «Кометы» (1958) TVRip
Год выпуска: 1958
Производство: СССР, киностудия "Мосфильм"
Жанр: Мюзикл, мелодрама

Описание фильма:
В небольшом южном городе живет матрос Сергей Чайкин. Друзьям нравятся его веселые и задушевные песни. Сергей влюблен в спортсменку Лену, к которой неравнодушен также директор Дворца моряков Вадим.

Лена и Вадим уезжают в Москву на VI Всемирный фестиваль молодежи и студентов, следом за ними вылетает в Москву и Сергей, заменивший в ансамбле моряков заболевшего солиста…

Режиссер: Исидор Анненский
Актеры: Глеб Романов, Николай Крючков, Николай Свободин, Татьяна Бестаева, Майя Менглет, Владимир Сошальский, Иван Любезнов, Анна Лисянская, Андрей Тутышкин, Николай Прокопович, Валентин Печников, Георгий Гумилевский, Юрий Киреев, Маргарита Жарова

Продолжительность: 01:28:11
Качество видео: TVRip



Видео: DivX 4, 1 032 Kbps, 640 x 480 pixels, 25.000 fps, Bits/(Pixel*Frame) : 0.134
Аудио: MP3, 64.0 Kbps, 1 channel, 44.1 KHz
Matros.avi
Format : AVI
Format/Info : Audio Video Interleave
File size : 699 MiB
Duration : 1h 28mn
Overall bit rate : 1 109 Kbps
Writing application : Nandub v1.0rc2
Writing library : Nandub build 1853/release

Video
ID : 0
Format : MPEG-4 Visual
Format settings, BVOP : Yes
Format settings, QPel : No
Format settings, GMC : No warppoints
Format settings, Matrix : Default (H.263)
Codec ID : DIVX
Codec ID/Info : Project Mayo
Codec ID/Hint : DivX 4
Duration : 1h 28mn
Bit rate : 1 032 Kbps
Width : 640 pixels
Height : 480 pixels
Display aspect ratio : 4:3
Frame rate : 25.000 fps
Color space : YUV
Chroma subsampling : 4:2:0
Bit depth : 8 bits
Scan type : Progressive
Compression mode : Lossy
Bits/(Pixel*Frame) : 0.134
Stream size : 651 MiB (93%)

Audio
ID : 1
Format : MPEG Audio
Format version : Version 1
Format profile : Layer 3
Codec ID : 55
Codec ID/Hint : MP3
Duration : 1h 28mn
Bit rate mode : Constant
Bit rate : 64.0 Kbps
Channel(s) : 1 channel
Sampling rate : 44.1 KHz
Compression mode : Lossy
Stream size : 40.4 MiB (6%)
Alignment : Aligned on interleaves
Interleave, duration : 26 ms (0.65 video frame)
Interleave, preload duration : 496 ms
Writing library : LAME3.93
Encoding settings : -m m -V 4 -q 2 -lowpass 13.7 -b 64
Скриншоты:


Реставрация релиза: smaster67

Все релизы фильма на NNM-club
[NNM-Club.info] Matros.avi.torrent
 Торрент: Платиновая раздача  Зарегистрирован
 
Скачать


 Зарегистрирован:   01 Окт 2008 19:27:07
 Размер:   699 MB  (
 Рейтинг:   4 (Голосов: 22)
 Поблагодарили:   43
 Проверка:   Оформление проверено модератором 01 Окт 2008 21:34:59
Как cкачать  ·  Как раздать  ·  Правильно оформить  ·  Поднять ратио!  
Mischka79
Стаж: 9 лет 11 мес.
Сообщений: 320
Ratio: 86,173
Раздал: 3,039 TB
100%
Откуда: Иваново
russia.gif
Спасибо за фильм! Очень душевный и музыкальный :)
1ADITA
Стаж: 11 лет
Сообщений: 91
Ratio: 0,973
22.46%
Откуда: Херсон
ukraine.gif
Благодарю за наши добрые фильмы!
tatyana_snytko
Стаж: 9 лет 11 мес.
Сообщений: 225
Ratio: 10,273
Раздал: 9,145 TB
100%
Откуда: Находка
russia.gif
Спасибо за прекрасный фильм!
smaster67
Модератор Видео
Покровитель талантов Uploader 300+
Стаж: 9 лет 8 мес.
Сообщений: 7112
Ratio: 227,958
Поблагодарили: 214256
100%
Показать сообщения:   
Начать новую тему   Ответить на тему    Торрент-трекер NNM-Club -> Классика кино и Старые фильмы до 90-х -> Отечественная Классика (HD*Rip/LQ, DVDRip, SATRip, VHSRip) Часовой пояс: GMT + 3
Страница 1 из 1