Классический форум-трекер
canvas not supported
Нас вместе: 4 068 977

Трудный день / A Hard Day / Kkeut-kka-ji-gan-da (2014) HDTVRip


 
 
RSS
Начать новую тему   Ответить на тему    Торрент-трекер NNM-Club -> Зарубежное кино -> Азиатское кино (HD*Rip/LQ, DVDRip, SATRip, VHSRip)
Автор Сообщение
Viсtоr ®
Стаж: 8 лет
Сообщений: 531
Ratio: 674,907
Поблагодарили: 2994
100%
russia.gif
Трудный день / A Hard Day / Kkeut-kka-ji-gan-da (2014) HDTVRip
Год выпуска: 2014
Производство: Южная Корея / AD406, Dasepo Club
Жанр: Боевик, Триллер, Криминал

Описание фильма:
Возвращаясь с похорон своей матери, детектив отдела специальных преступлений Го Гон Су попадает в аварию, в результате которой погибает человек. Произошедшая авария может мгновенно поставить крест на карьере, разрушив всю его жизнь. Для того, чтобы скрыть свое преступление, он прячет тело погибшего внутри гроба матери...

Режиссер: Ким Сон Хун
Актеры: Ли Сон Гюн, Чо Чжин Ун, Чон Ман Сик, Шин Дон Ми, Син Чжон Гын

Продолжительность: 01:50:53
Качество видео: HDTVRip
Формат: AVI

Перевод: Двуголосый закадровый, любительский
Роли озвучивают: DeadSno & den904
Внимание! Присутствует ненормативная лексика.



Дата мировой премьеры: 18 мая 2014

Видео: MPEG-4 DivX 5, 720x304 (2.35:1), 23.976 fps, ~1315 Kb/s (0.251 bit/pixel)
Аудио: AC-3, 48.0 KHz, 5.1 ch, 448 Kb/s, CBR | Russian
Через несколько дней, факт преступления, совершенного Гон Су фиксируется в полиции, расследование этого дела и поиск виновного лица поручено его напарнику. Гон Су впадает в панику, потому что медленно, шаг за шагом, его напарник раскрывает все больше деталей той аварии. Что еще хуже, объявляется свидетель аварии, не просто осложняющий жизнь Гон Су, но и ставящий его жизнь под угрозу, в желании заставить того заплатить за ошибку...
Код:
Общее
Полное имя                               : A.Hard.Day.2014.HDTVRip_NNM-CLUB.avi
Формат                                   : AVI
Формат/Информация                        : Audio Video Interleave
Размер файла                             : 1,37 Гбайт
Продолжительность                        : 1 ч. 50 м.
Общий поток                              : 1772 Кбит/сек
Программа кодирования                    : VirtualDubModRus 1.5.10.2 (build 2542/release)
Библиотека кодирования                   : VirtualDubMod build 2542/release

Видео
Идентификатор                            : 0
Формат                                   : MPEG-4 Visual
Профиль формата                          : Advanced Simple@L5
Параметр BVOP формата                    : 1
Параметр QPel формата                    : Нет
Параметр GMC формата                     : Без точки перехода
Параметр матрицы формата                 : Default (MPEG)
Идентификатор кодека                     : DX50
Идентификатор кодека/Подсказка           : DivX 5
Продолжительность                        : 1 ч. 50 м.
Битрейт                                  : 1315 Кбит/сек
Ширина                                   : 720 пикселей
Высота                                   : 304 пикселя
Соотношение сторон                       : 2,35:1
Частота кадров                           : 23,976 кадра/сек
Цветовое пространство                    : YUV
Субдискретизация насыщенности            : 4:2:0
Битовая глубина                          : 8 бит
Тип развёртки                            : Прогрессивная
Метод сжатия                             : С потерями
Бит/(Пиксели*Кадры)                      : 0.251
Размер потока                            : 1,02 Гбайт (74%)
Библиотека кодирования                   : XviD 1.2.1 (UTC 2008-12-04)

Аудио
Идентификатор                            : 1
Формат                                   : AC-3
Формат/Информация                        : Audio Coding 3
Расширение режима                        : CM (complete main)
Параметр Endianness формата              : Big
Идентификатор кодека                     : 2000
Продолжительность                        : 1 ч. 50 м.
Вид битрейта                             : Постоянный
Битрейт                                  : 448 Кбит/сек
Каналы                                   : 6 каналов
Расположение каналов                     : Front: L C R, Side: L R, LFE
Частота                                  : 48,0 КГц
Битовая глубина                          : 16 бит
Метод сжатия                             : С потерями
Размер потока                            : 355 Мбайт (25%)
Выравнивание                             : Разделение по промежуткам
Продолжительность промежутка             : 42  мс. (1,00 видеокадр)
Время предзагрузки промежутка            : 500  мс.
Скриншоты:
Время раздачи: 24/7 - круглосуточно (до 3 скачавших), далее по возможности
A.Hard.Day.2014.HDTVRip_NNM-CLUB.avi.torrent
 Торрент: Платиновая раздача  Зарегистрирован
 
Скачать


Примагнититься
 Зарегистрирован:   19 Ноя 2014 23:24:40
 Размер:   1,37 GB  (
 Рейтинг:   4,7 (Голосов: 49)
 Поблагодарили:   199
 Проверка:   Оформление проверено модератором 20 Ноя 2014 16:23:12
Как cкачать  ·  Как раздать  ·  Правильно оформить  ·  Поднять ратио!  
relax57
Стаж: 9 лет 3 мес.
Сообщений: 164
Ratio: 29,716
100%
russia.gif
начало описания затрагивает, а в конце в гроб и все :мегашок:
Cybernetic83
Стаж: 7 лет 10 мес.
Сообщений: 250
Ratio: 3,761
100%
Люблю корейские фильмы!Ща глянем))
leknas
Стаж: 7 лет 5 мес.
Сообщений: 32
Ratio: 90,744
100%
Много матюков не по делу, совсем не передает колорит, а начинает напрягать.
Merandell
Стаж: 7 лет 4 мес.
Сообщений: 22
Ratio: 3,263
Поблагодарили: 26
69.24%
Откуда: СПб
pirates.png
Отличный кинчик
Antonio_Y1
Стаж: 5 лет
Сообщений: 27
Ratio: 1,372
9.43%
leknas писал(а): Перейти к сообщению
Много матюков не по делу, совсем не передает колорит, а начинает напрягать.

+1
Klebass85
Стаж: 5 лет 11 мес.
Сообщений: 35
Ratio: 6,195
2.6%
Фильм супер! Переживал за гг
nikkibakurin
Стаж: 9 лет 2 мес.
Сообщений: 234
Ratio: 0,365
100%
north_korea.gif
Классный фильм. Протагонист конечно не пример для подражания - ушлый легавый, взяточник, крыша для барыг, но за него переживаешь весь фильм. Антагонист вообще маньяк-терминатор какой-то. :) Концовка особенно приколола.
Last13
Стаж: 4 года 8 мес.
Сообщений: 461
Ratio: 6,986
100%
мне понравился)
rik33
Стаж: 5 лет 5 мес.
Сообщений: 4
Ratio: 28,277
100%
Отличный кинчик
AAV79
Стаж: 9 лет 1 мес.
Сообщений: 28
Ratio: 3,098
0%
russia.gif
Мне понравился
dresha48
Стаж: 8 лет 8 мес.
Сообщений: 273
Ratio: 13,127
100%
ukraine.gif
фильм шикарен
val_vran
Стаж: 7 лет 5 мес.
Сообщений: 31
Ratio: 2,87
29.35%
Фильм очень не плох. Не пожалеете.
vanekKF

Online
Стаж: 7 лет 4 мес.
Сообщений: 796
Ratio: 34,84
100%
Откуда: как и все-оттуда на лыжах
Местами поржал, перевод отличный. Сам фильм необычен по корейски.
Показать сообщения:   
Начать новую тему   Ответить на тему    Торрент-трекер NNM-Club -> Зарубежное кино -> Азиатское кино (HD*Rip/LQ, DVDRip, SATRip, VHSRip) Часовой пояс: GMT + 3
Страница 1 из 1