Классический форум-трекер
canvas not supported
Нас вместе: 4 065 063

Алекс Мэй | Женская академия секса (2012) CamRip [H.264]


Страницы:   Пред.  1, 2, 3, 4 
 
RSS
Начать новую тему   Ответить на тему    Торрент-трекер NNM-Club -> Обучающие видеоматериалы -> Другие
Автор Сообщение
zet1989 ®
Стаж: 5 лет 10 мес.
Сообщений: 8
Ratio: 2,428
Поблагодарили: 2347
30.85%
Алекс Мэй | Женская академия секса (2012) [H.264] CamRip
Автор (режиссер): Алекс Мэй
Название: Женская академия секса
Год выпуска: 2012
Жанр: Тренинг

Описание:
Академия Секса для женщин является полным аналогом 2-х дневного женского семинара. Вся программа разбита на 4 видеоблока:

Продолжительность: 11:50:21
Качество видео: CamRip
Видеокодек: AVC
Битрейт видео: ~1739 kb/s
Размер кадра: 640 x 480
Аудиокодек: AAC
Битрейт аудио: 72 kb/s, 2 Ch, 44000 Hz
1. "Взлом стереотипов". В этом блоке программы у женщины координально меняется отношение к сексу и вообще к вам, убираются все те мифы и легенды, которые так упорно навязываются популярными женскими журналами и ТВ.
2. "Королева". Пройдя этот этап, женщина прекрасно будет понимать свое и ваше тело, узнает механизмы женского и мужского возбуждения, а также научиться становиться для вас музой и источником вдохновения.
3. "Прелюдия и общение". Благодаря этому блоку она научится создавать атмосферу для крышесносного секса, узнает, как правильно ласкать ваше тело, а также изучит пошаговые алгоритмы прелюдии, которые будут с невероятной силой возбуждать вас обоих.
4. "Техники". Самая "вкусная" часть программы. В ней ваша подруга познакомится с десятками виртуозных техник и будет в совершенстве делать все, что связано с сексом (начиная от минета и заканчивая "оттягиванием" вашего семяизвержения). Конечно, это далеко не полное описание того, что ждет вашу подругу... На самом деле она получит абсолютно все, чтобы с гордостью носить имя "девушки мечты" и дарить вам незабываемые дни совместной жизни!
General
Complete name : level1.mp4
Format : MPEG-4
Format profile : QuickTime
Codec ID : qt
File size : 971 MiB
Duration : 2h 53mn
Overall bit rate : 783 Kbps
Encoded date : UTC 2012-07-11 10:33:12
Tagged date : UTC 2012-07-11 10:34:27
Writing library : Apple QuickTime
com.apple.quicktime.software : ScreenFlow

Video
ID : 2
Format : AVC
Format/Info : Advanced Video Codec
Format profile : Main@L3.1
Format settings, CABAC : No
Format settings, ReFrames : 2 frames
Format settings, GOP : M=1, N=120
Codec ID : avc1
Codec ID/Info : Advanced Video Coding
Duration : 2h 53mn
Bit rate : 716 Kbps
Width : 640 pixels
Height : 360 pixels
Display aspect ratio : 16:9
Frame rate mode : Constant
Frame rate : 30.000 fps
Color space : YUV
Chroma subsampling : 4:2:0
Bit depth : 8 bits
Scan type : Progressive
Bits/(Pixel*Frame) : 0.104
Stream size : 889 MiB (92%)
Language : English
Encoded date : UTC 2012-07-11 07:46:29
Tagged date : UTC 2012-07-11 10:34:27
Color primaries : BT.601 NTSC
Transfer characteristics : BT.709
Matrix coefficients : BT.601

Audio
ID : 1
Format : AAC
Format/Info : Advanced Audio Codec
Format profile : LC
Codec ID : 40
Duration : 2h 53mn
Source duration : 2h 53mn
Bit rate mode : Constant
Bit rate : 64.0 Kbps
Channel count : 1 channel
Channel positions : Front: C
Sampling rate : 44.1 KHz
Compression mode : Lossy
Stream size : 77.9 MiB (8%)
Source stream size : 77.9 MiB (8%)
Language : English
Encoded date : UTC 2012-07-11 07:46:29
Tagged date : UTC 2012-07-11 10:34:27
Скриншоты:


Время раздачи: 11:00 до 24:00
[NNM-Club.me]_Myey zhenskiy.torrent
 Торрент: Платиновая раздача  Зарегистрирован
 
Скачать


Примагнититься
 Зарегистрирован:   30 Сен 2013 18:27:18
 Размер:   8,15 GB  (
 Рейтинг:   4,5 (Голосов: 292)
 Поблагодарили:   1042
 Проверка:   Оформление проверено модератором 01 Окт 2013 06:50:43
Как cкачать  ·  Как раздать  ·  Правильно оформить  ·  Поднять ратио!  
axels3
Стаж: 6 лет 9 мес.
Сообщений: 1
Ratio: 11,056
0%
ребята, можно хаять и ругать автора, но никто не задумывается над тем что кагда в семье нет секса, то это не семья, а сожительство, ведь секс играет важную роль в жизни. и если мужчина не способен разбудить в женщине сексуальность то она уйдет. если женщина "ПОЛЕНО" по просто "сушите спички" а Алекс вам подскажет как.

я просмотрел мужской тренинг и теперь смотрю женский, чтобы знать и научить партнера.

данные тренинги помогают избавится от одной проблемы СУПРУЖЕССКОЙ ИЗМЕНЫ и это уже важнл
Viki89
Стаж: 3 года 1 мес.
Сообщений: 45
Ratio: 73,351
Раздал: 502 GB
Поблагодарили: 13
100%
Откуда: Киев
ukraine.gif
Спасибо огромное за Мэя! Выкладывайте пожалуйста все, что есть!

_________________
startseff
Стаж: 3 года 8 мес.
Сообщений: 436
Ratio: 6,274
100%
belarus.gif
Цитата:
Женщин надо просто брать и владеть. Вот и вся наука.

Лично я полностью с этим согласен . У меня большой опыт общения с женщинами ( с разными женщинами , молодыми и старыми ) и по-моему именно такие мужчины нравятся женщинам , мужчины уверенные в себе , которые берут что хотят ... берут и владеют ... :да:

Добавлено спустя 13 минут 36 секунд:

Однако , семинары Алекса очень толковые , много полезного и действительно правильного можно узнать ... хотя , есть и спорные моменты ( поиск точки G , которой нет на самом деле ; продление семяизвержения ( может сильно навредить здоровью и смысла в этом лично я не вижу ); всякие там астральные , экстрасенсорные дела ( этого мало , но есть )) , но в целом очень правильно говорит ... видно , что тему изучил хорошо и не только в теории , но и на практике ( что очень важно ) .
egd@n
 
Стаж: 7 лет 5 мес.
Сообщений: 73
Ratio: 4,041
100%
nnm-club.gif
galit75 писал(а): Перейти к сообщению

всем женщинам и девушкам, даже тем кому 17... рекомендую. То что Алекс рассказывает, надо в старших классах преподавать.

Это уже пропаганда разврата малолеток, не так ли? Точнее развал традиционных семейных устоев. Пусть это изучается хоть с 13 лет, но только на пидо...-свободном Западе.
А нашим девушкам принять к сведению и взять из этого только необходимое , и только после 20-25 годов, то есть с формированной психикой и устоявшейся семейной нравственностью.

Добавлено спустя 5 минут 56 секунд:

Viki89 писал(а): Перейти к сообщению
Спасибо огромное за Мэя! Выкладывайте пожалуйста все, что есть!

Для женщин я встречал только этот курс, остальные для мужчин. На этом Клубе уже были публикации, поищите через поисковик.

_________________
We are legion.
Flinne
Стаж: 6 лет 11 мес.
Сообщений: 8
Ratio: 24,693
1.1%
Какой же бред люди пишут в комментариях. Мэй учит безвозмездно любить друг друга, потрясающие курсы. Что вообще может быть круче, чем сделать любимому человеку хорошо? Мастхэв и для мужчин, и для женщин (правда для женщин только этот, секреты любовницы и прочее нет смысла качать, все есть в этом курсе)

По делу: попробовала техники из 4 видео, это была бомба))
Показать сообщения:   
Начать новую тему   Ответить на тему    Торрент-трекер NNM-Club -> Обучающие видеоматериалы -> Другие Часовой пояс: GMT + 3
Страницы:   Пред.  1, 2, 3, 4
Страница 4 из 4