Классический форум-трекер
canvas not supported
Нас вместе: 4 065 068

Полет навигатора / Flight of the Navigator (1986) BDRemux [1080p]


Страницы:   Пред.  1, 2 
 
RSS
Начать новую тему   Ответить на тему    Торрент-трекер NNM-Club -> Классика кино и Старые фильмы до 90-х -> Старые Зарубежные Фильмы (HD, UHD, UHD-LQ)
Автор Сообщение
ElektrAа ®
Модератор Видео
Uploader 500+
Стаж: 7 лет 10 мес.
Сообщений: 2764
Ratio: 7843,409
Раздал: 502,3 TB
Поблагодарили: 377893
100%
Откуда: Южная столица
ukraine.gif
Полет навигатора / Flight of the Navigator (1986) BDRemux
Год выпуска: 1986
Производство: США, Норвегия, New Star, Producers Sales Organization (PSO), Viking Films, Walt Disney Pictures
Жанр: Фантастика, Приключения, Семейный
Перевод: Дублированный, профессиональный многоголосый, любительский одноголосый
Субтитры: Вшитые (отключаемые)
Язык субтитров: Русские, английские

Режиссер: Рэндэл Клайзер
Продюсер: Дмитрий Виллар, Марк Дэймон
Актеры: Джои Крамер, Пол Рубенс, Вероника Картрайт, Клифф Де Янг, Сара Джессика Паркер, Мэтт Адлер, Ховард Хессеман, Роберт Смолл, Элби Уайтакер

Описание фильма:
В 1978 году 12-летний мальчик не вернулся домой. Он считался пропавшим без вести в течение 8 лет. Но однажды он вернулся. Радости родных не было предела, но что случилось с ребенком? За эти годы он совсем не вырос, оставшись таким, как и много лет назад. Сам он не может ничего объяснить. Мальчик помнит только, что заблудился в лесу, потом упал, а когда очнулся, то обнаружил себя в 1986 году. Вскоре люди обнаружили нечто похожее на летающую тарелку, запутавшуюся в электрических проводах. Что это, совпадение, или мальчик действительно был похищен инопланетянами?



Продолжительность: 01:29:33
Качество видео: BDRemux

Видеокодек: MPEG-4 AVC/H.264
Битрейт видео: ~20.1 Мбит/с
Размер кадра: 1920x1080p

Аудио 1: Русский AC3, 2 ch, 192 Кбит/с | Дублированный (Киностудия им. Горького)
Аудио 2: Русский AC3, 2 ch, 192 Кбит/с | Профессиональный многоголосый (СТС)
Аудио 3: Русский AC3, 2 ch, 192 Кбит/с | Любительский одноголосый (Ray)
Аудио 4: Английский DTS-HD MA, 6 ch, 2112 Кбит/с | Оригинал
General
Complete name : O:\Flight of the Navigator (1986).1080p. BD-Remux.mkv
Format : Matroska
File size : 14.2 GiB
Duration : 1h 29mn
Overall bit rate : 22.7 Mbps
Movie name : -Talian-
Encoded date : UTC 2011-06-04 19:10:28
Writing application : mkvmerge v3.3.0 ('Language') сборка от May 14 2010 17:11:50
Writing library : libebml v0.8.0 + libmatroska v0.9.0

Video
ID : 1
Format : AVC
Format/Info : Advanced Video Codec
Format profile : High@L4.1
Format settings, CABAC : Yes
Format settings, ReFrames : 4 frames
Muxing mode : Container profile=Unknown@4.1
Codec ID : V_MPEG4/ISO/AVC
Duration : 1h 29mn
Width : 1 920 pixels
Height : 1 080 pixels
Display aspect ratio : 16:9
Frame rate : 23.976 fps
Resolution : 8 bits
Colorimetry : 4:2:0
Scan type : Progressive
Title : Flight of the Navigator (1986).1080p. BD-Remux
Language : English

Audio #1
ID : 2
Format : AC-3
Format/Info : Audio Coding 3
Format profile : Dolby Digital
Codec ID : A_AC3
Duration : 1h 29mn
Bit rate mode : Constant
Bit rate : 192 Kbps
Channel(s) : 2 channels
Channel positions : L R
Sampling rate : 48.0 KHz
Stream size : 123 MiB (1%)
Title : DUB-Киностудия им. Горького
Language : Russian

Audio #2
ID : 3
Format : AC-3
Format/Info : Audio Coding 3
Format profile : Dolby Digital
Codec ID : A_AC3
Duration : 1h 29mn
Bit rate mode : Constant
Bit rate : 192 Kbps
Channel(s) : 2 channels
Channel positions : L R
Sampling rate : 48.0 KHz
Stream size : 123 MiB (1%)
Title : MVO-СТС
Language : Russian

Audio #3
ID : 4
Format : AC-3
Format/Info : Audio Coding 3
Format profile : Dolby Digital
Codec ID : A_AC3
Duration : 1h 29mn
Bit rate mode : Constant
Bit rate : 192 Kbps
Channel(s) : 2 channels
Channel positions : L R
Sampling rate : 48.0 KHz
Stream size : 123 MiB (1%)
Title : VO-Ray
Language : Russian

Audio #4
ID : 5
Format : DTS
Format/Info : Digital Theater Systems
Format profile : MA
Codec ID : A_DTS
Duration : 1h 29mn
Bit rate mode : Variable
Channel(s) : 6 channels
Channel positions : Front: L C R, Surround: L R, LFE
Sampling rate : 48.0 KHz
Resolution : 16 bits
Title : Original
Language : English

Text #1
ID : 6
Format : UTF-8
Codec ID : S_TEXT/UTF8
Codec ID/Info : UTF-8 Plain Text
Title : Sub
Language : Russian

Text #2
ID : 7
Format : UTF-8
Codec ID : S_TEXT/UTF8
Codec ID/Info : UTF-8 Plain Text
Title : Sub
Language : English

Menu
00:00:00.000 : 00:00:00.000
00:11:05.706 : 00:11:05.706
00:21:46.138 : 00:21:46.138
00:33:04.857 : 00:33:04.857
00:39:57.186 : 00:39:57.186
00:48:51.386 : 00:48:51.386
01:00:58.363 : 01:00:58.363
01:09:28.163 : 01:09:28.163
01:19:17.752 : 01:19:17.752
01:26:01.155 : 01:26:01.155
01:29:32.950 : 01:29:32.950

Скриншоты:


Время раздачи: 24/7 - круглосуточно
Благодарности, а также конструктивное обсуждение раздачи способствует ее долгожительству и вдохновляет автора на создание новых.
[NNM-Club.me]_Flight of the Navigator (1986).1080p. BD-Remux.mkv.torrent
 Торрент: Платиновая раздача  Зарегистрирован
 
Скачать


Примагнититься
 Зарегистрирован:   05 Дек 2014 22:20:35
 Размер:   14,2 GB  (
 Рейтинг:   4,7 (Голосов: 126)
 Поблагодарили:   371
 Проверка:   Оформление проверено модератором 05 Дек 2014 22:32:35
Как cкачать  ·  Как раздать  ·  Правильно оформить  ·  Поднять ратио!  

_________________
«Правила оформления релизов в разделе Видео» | После исправлений - в ЛС
platam
Стаж: 1 год 8 мес.
Сообщений: 31
Ratio: 3,236
0.27%
ussr.gif
Ба, фильм моей школы. А еще "Враг мой", "Робокоп", "Инопланетянин", "Короткое замыкание", "Хонгильдон"
Ностальгия...
Показать сообщения:   
Начать новую тему   Ответить на тему    Торрент-трекер NNM-Club -> Классика кино и Старые фильмы до 90-х -> Старые Зарубежные Фильмы (HD, UHD, UHD-LQ) Часовой пояс: GMT + 3
Страницы:   Пред.  1, 2
Страница 2 из 2