Классический форум-трекер
canvas not supported
Нас вместе: 4 068 978

VA - Millenium Sunshine (2013) DVD5


 
 
RSS
Начать новую тему   Ответить на тему    Торрент-трекер NNM-Club -> Архив торрентов -> Архив Музыкального Видео
Автор Сообщение
exis19 ®
Стаж: 8 лет 9 мес.
Сообщений: 154
Ratio: 10,845
Поблагодарили: 7962
100%
VA - Millenium Sunshine Sunshine (2013) DVD5
Оригинальное название: VA - Millenium Sunshine
Год выпуска: 2013
Жанр: Рор

Треклист

01 Ricky Martin - Living La Vida Loca
02 Las Ketchup - The Ketchup Song
03 Paradisio - Bailando
04 Bellini - Samba De Janeiro
05 Los del Rio - Macarena
06 Kaoma - Lambada
07 Paola & Chiara - Vamos a Bailar
08 Lou Bega - Mambo No. 5
09 Tom Pulse - Taka Taka
10 Dj Maxim - Papa Loves Mambo
11 Umboza - Sunshine
12 Mr.President - Coco Jamboo
13 Shabba - Mr Loverman
14 Miami Sound Machine - Conga
15 Paradisio - La Luz De La Luna
16 Boney M - Kalimba De Luna
17 ShaggyFt.Rayvon - In The Summertime
18 Gibson Brothers - Cuba
19 Aventura - Obsesion
20 Carrapicho - Tic Tic Tac
21 REC - Chocolat.

Продолжительность: 01:13:49

Видеокодек: MPEG-2
Битрейт видео: ~8000 Кбит/сек
Размер кадра: 720x576 (PAL 4:3), 25.00fps
Качество видео: DVD5
Аудиокодек: LPCM
Битрейт аудио: 2ch stereo, 1536kbps
Title: Millenium Sunshine DVD
Size: 4.33 Gb ( 4 539 436,00 KBytes ) - DVD-5
Enabled regions: 1, 2, 3, 4, 5, 6, 7, 8

VTS_01 :
Play Length: 01:13:49
Video: PAL 4:3 (720x576) VBR
Audio:
English (LinearPCM, 2 ch)

VTS_02 :
Play Length: 00:00:05
Video: PAL 4:3 (720x576) VBR
Audio:
English (LinearPCM, 2 ch)

* Menus Information *

VIDEO_TS Menu
Video:
PAL 4:3 (720x576) VBR
English Language Unit :
Title Menu

VTS_01 Menu
Video:
PAL 4:3 (720x576) VBR
Audio:
Not specified (LinearPCM, 2 ch)
English Language Unit :
Root Menu

VTS_02 Menu
Video:
PAL 4:3 (720x576) VBR
English Language Unit :
Root Menu
Общее
Полное имя : D:\Millenium Sunshine DVD\VIDEO_TS\VTS_01_2.VOB
Формат : MPEG-PS
Размер файла : 1024 Мбайт
Продолжительность : 16 м.
Режим общего битрейта : Переменный
Общий поток : 8807 Кбит/сек

Видео
Идентификатор : 224 (0xE0)
Формат : MPEG Video
Версия формата : Version 2
Профиль формата : Main@Main
Параметр BVOP формата : Да
Параметр матрицы формата : Выборочная
Параметр GOP формата : Variable
Продолжительность : 16 м.
Вид битрейта : Переменный
Битрейт : 7096 Кбит/сек
Максимальный битрейт : 8000 Кбит/сек
Ширина : 720 пикселей
Высота : 576 пикселей
Соотношение сторон : 4:3
Частота кадров : 25,000 кадров/сек
Стандарт вещания : PAL
Цветовое пространство : YUV
Субдискретизация насыщенности : 4:2:0
Битовая глубина : 8 бит
Тип развёртки : Чересстрочная
Порядок развёртки : Нижнее поле первое
Метод сжатия : С потерями
Бит/(Пиксели*Кадры) : 0.684
Размер потока : 825 Мбайт (81%)

Аудио
Идентификатор : 189 (0xBD)-160 (0xA0)
Формат : PCM
Параметр Endianness формата : Big
Параметр Sign формата : Signed
Режим смешивания : DVD-Video
Продолжительность : 16 м.
Вид битрейта : Постоянный
Битрейт : 1536 Кбит/сек
Каналы : 2 канала
Частота : 48,0 КГц
Битовая глубина : 16 бит
Задержка видео : -610 мс.
Размер потока : 179 Мбайт (17%)
Скриншоты:
[NNM-Club.ru]_millenium_sunshine.torrent
 Торрент:   Зарегистрирован
 
Зарегистрируйтесь и скачайте торрент!
11,8 KB

Примагнититься
 Зарегистрирован:   04 Фев 2013 13:53:08
 Размер:   4,33 GB  (
 Рейтинг:    (Голосов: 9)
 Поблагодарили:   39
 Проверка:   Оформление проверено модератором 04 Фев 2013 23:37:00
Как cкачать  ·  Как раздать  ·  Правильно оформить  ·  Поднять ратио!  
exis19 ®
Стаж: 8 лет 9 мес.
Сообщений: 154
Ratio: 10,845
Поблагодарили: 7962
100%
Превью - Millenium Sunshine 1 https://www.youtube.com/watch?v=ReP7dUlEhOc&feature=youtu.be
Топик был перенесен из форума Музыкальные клипы в форум Архив Музыкального Видео

Причина переноса: Отсутствие сидов более трех месяцев.

Исправил релиз - напиши ЛС ALLic, дав ссылку на релиз.
Если нет ответа 24 часа - нажми на кнопку "Обратить внимание модераторов".
vivarasistanc
Стаж: 6 лет 9 мес.
Сообщений: 3
Ratio: 14,766
0%
exis19
Please seeds!
Показать сообщения:   
Начать новую тему   Ответить на тему    Торрент-трекер NNM-Club -> Архив торрентов -> Архив Музыкального Видео Часовой пояс: GMT + 3
Страница 1 из 1