Классический форум-трекер
canvas not supported
Нас вместе: 4 068 904

Остров сокровищ (1988) DVD5 (Реставрация)


Страницы:   Пред.  1, 2 
 
RSS
Начать новую тему   Ответить на тему    Торрент-трекер NNM-Club -> Мультфильмы -> Отечественные Мультфильмы (HD, UHD, UHD-LQ, DVD, Сборники)
Автор Сообщение
LET ®
Инквизитор
Стаж: 12 лет
Сообщений: 4888
Ratio: 85,027
Поблагодарили: 19451
100%
ussr.gif
"Киевнаучфильм" Остров сокровищ (1988) DVD5 [диск 8]
"Крупный план"- полная реставрация изображения и звука
Жанр: Детский, Рисованая анимация

Режиссер: Давид Черкасский

Описание:
По одноименному роману Р. Л. Стивенсона.
Юный Джим Хоккинс и его друзья - доктор Ливси и сквайр Трелони случайно становятся обладателями таинственной карты капитана Флинта, на которой указано место в Карибском море, где спрятаны несметные сокровища знаменитого пирата. На прекрасной шхуне "Эспаньола" они начинают опасное плавание к далекому острову и не подозревают, что вместе с ними за сокровищами, под скромной личностью корабельного кока, отправился Джон Сильвер - самый кровожадный и коварный пират!

Пятнадцать человек на сундук мертвеца.
Йо-хо-хо, и бутылка рому!


Продолжительность: 01:46:50
Качество видео: DVD5

Видео: MPEG 2, 720x576 (4:3), 25.000 fps, 4 013 Kbps
Audio #1: AC-3, 48.0 KHz, 3/2 (L,C,R,SL,SR)+LFE, 6 ch, 448 kbps, CBR
Audio #2: AC-3, 48.0 KHz, 1/0 (C) 1 ch, 224 kbps, CBR
Код: выделить все
Title: Ostrov_sokrovich_[nnm-club.me]
Size: 3.70 Gb ( 3 879 766,00 KBytes ) - DVD-5
Enabled regions: 1, 2, 3, 4, 5, 6, 7, 8

VTS_01 :
  Play Length: 00:00:51
  Video: PAL 4:3 (720x576) VBR

VTS_02 :
  Play Length: 01:46:50
  Video: PAL 4:3 (720x576) VBR
  Audio:
      Russian (Dolby AC3, 6 ch)
      Russian (Dolby AC3, 1 ch)

* Menus Information *

VIDEO_TS Menu
Video:
      PAL 4:3 (720x576) VBR
English Language Unit :
      Title Menu

VTS_01 Menu
Video:
      PAL 4:3 (720x576) VBR
Audio:
      Not specified (Dolby AC3, 6 ch)
English Language Unit :
      Root Menu

VTS_02 Menu
Video:
      PAL 4:3 (720x576) VBR
English Language Unit :
      Root Menu
Код: выделить все
Общее
Полное имя                               : С:\...\Ostrov_sokrovich_[nnm-club.me]\VIDEO_TS\VTS_02_1.VOB
Формат                                   : MPEG-PS
Размер файла                             : 1024 Мбайт
Продолжительность                        : 29 м.
Общий поток                              : 4781 Кбит/сек

Видео
Идентификатор                            : 224 (0xE0)
Формат                                   : MPEG Video
Версия формата                           : Version 2
Профиль формата                          : Main@Main
Параметр BVOP формата                    : Да
Параметр матрицы формата                 : Выборочная
Параметр GOP формата                     : M=3, N=12
Продолжительность                        : 29 м.
Битрейт                                  : 4013 Кбит/сек
Ширина                                   : 720 пикселей
Высота                                   : 576 пикселей
Соотношение сторон                       : 4:3
Частота кадров                           : 25,000 кадров/сек
Стандарт вещания                         : PAL
Цветовое пространство                    : YUV
Субдискретизация насыщенности            : 4:2:0
Битовая глубина                          : 8 бит
Тип развёртки                            : Чересстрочная
Порядок развёртки                        : Верхнее поле первое
Метод сжатия                             : С потерями
Бит/(Пиксели*Кадры)                      : 0.387
Временной код первого кадра              : 00:00:00:01
Оригинал временного кода                 : Group of pictures header
Размер потока                            : 860 Мбайт (84%)

Аудио #1
Идентификатор                            : 189 (0xBD)-128 (0x80)
Формат                                   : AC-3
Формат/Информация                        : Audio Coding 3
Расширение режима                        : CM (complete main)
Параметр Endianness формата              : Big
Режим смешивания                         : DVD-Video
Продолжительность                        : 29 м.
Вид битрейта                             : Постоянный
Битрейт                                  : 448 Кбит/сек
Каналы                                   : 6 каналов
Расположение каналов                     : Front: L C R, Side: L R, LFE
Частота                                  : 48,0 КГц
Битовая глубина                          : 16 бит
Метод сжатия                             : С потерями
Задержка видео                           : 215 мс.
Размер потока                            : 95,9 Мбайт (9%)

Аудио #2
Идентификатор                            : 189 (0xBD)-129 (0x81)
Формат                                   : AC-3
Формат/Информация                        : Audio Coding 3
Расширение режима                        : CM (complete main)
Параметр Endianness формата              : Big
Режим смешивания                         : DVD-Video
Продолжительность                        : 29 м.
Вид битрейта                             : Постоянный
Битрейт                                  : 224 Кбит/сек
Каналы                                   : 1 канал
Расположение каналов                     : Front: C
Частота                                  : 48,0 КГц
Битовая глубина                          : 16 бит
Метод сжатия                             : С потерями
Задержка видео                           : 217 мс.
Размер потока                            : 48,0 Мбайт (5%)

Меню

Скриншоты:


"Киевнаучфильм" (диски 1-8)
Реставрация релизаqzerss
Ostrov_sokrovich_[nnm-club.ru].torrent
 Торрент: Платиновая раздача  Зарегистрирован
 
Скачать


Примагнититься
 Зарегистрирован:   25 Ноя 2018 16:20:29
 Размер:   3,7 GB  (
 Рейтинг:   4,9 (Голосов: 197)
 Поблагодарили:   650
 Проверка:   Оформление проверено модератором 25 Ноя 2018 17:20:28
Как cкачать  ·  Как раздать  ·  Правильно оформить  ·  Поднять ратио!  
iogiov
Стаж: 9 лет 11 мес.
Сообщений: 32
Ratio: 2,083
Раздал: 91,2 GB
Поблагодарили: 52
34.55%
Откуда: Москва
russia.gif
мульт обалденный, он у меня давно есть, но ужасно плохого качества. А тут качество супер, скачал, посмотрел, смотрится совсем по другому. Автору огромное спасибо!!!
стою на роздаче до упора.
narnik1
Стаж: 9 лет 6 мес.
Сообщений: 18
Ratio: 4,654
91.67%
latvia.gif
Спасибо за мульт, просто шикарно..... :поклоняется:
kjsljf
Стаж: 8 лет 1 мес.
Сообщений: 3
Ratio: 2,114
0%
дуже дякую!!!
djudjablog
Стаж: 8 лет 8 мес.
Сообщений: 17
Ratio: 0,998
Раздал: 1,242 TB
32.29%
russia.gif
LET
Встаньте, плиз на раздачу!Заранее спс!
kilomumu
Только чтение
Стаж: 3 года
Сообщений: 153
Ratio: 155,02
100%
ussr.gif
? А почему коменты десятилетние?
Показать сообщения:   
Начать новую тему   Ответить на тему    Торрент-трекер NNM-Club -> Мультфильмы -> Отечественные Мультфильмы (HD, UHD, UHD-LQ, DVD, Сборники) Часовой пояс: GMT + 3
Страницы:   Пред.  1, 2
Страница 2 из 2