Классический форум-трекер
canvas not supported
Нас вместе: 4 069 043

Ниндзя 2 / Ninja: Shadow of a Tear (2013) BDRip


 
 
RSS
Начать новую тему   Ответить на тему    Торрент-трекер NNM-Club -> Зарубежное кино -> Азиатское кино (HD*Rip/LQ, DVDRip, SATRip, VHSRip)
Автор Сообщение
dron_andruha ®
Стаж: 6 лет 3 мес.
Сообщений: 186
Ratio: 186,475
Раздал: 4,833 TB
Поблагодарили: 15922
100%
Откуда: Донецк
ukraine.gif
Ниндзя 2 / Ninja: Shadow of a Tear (2013) BDRip
Год выпуска: 2013
Производство: Таиланд, США / Swingin' Productions LLC
Жанр: Боевик, Триллер, Криминал
Перевод: Двуголосый закадровый, любительский
Озвучка / Автор перевода: Студия "Paradox"
Субтитры: Отсутствуют

Дата мировой премьеры: 20 сентября 2013

Режиссер: Айзек Флорентайн
Актеры: Скотт Эдкинс, Витхая Пансрингарм, Кейн Косуги, Тим Ман, Чарли Рюдпоканон, Рон Смуренбург, Мика Хиджии, Сюн Сугата, Эрика Нагаминэ, Патрик Тэнг

Описание фильма:
Кейси Боумен, наконец, начал оседлую жизнь. Он в счастливом браке с Намико (которая беременна первенцем), живёт в Японии и преподаёт в додзё Кога. Однажды на Кейси, отправившегося за подарком для жены, нападает пара отморозков. Он не придаёт этому значения, считая всё обычным грабежом. Но когда той же ночью жестоко убивают Намико, мир Кейси рушится на части. Поражённый горем и пылающий жаждой мести, Кейси выслеживает двух бандитов, пытавшихся его ограбить, но те не могут предоставить ему ключи к разгадке убийства его жены. Поэтому Кейси отправляется в Таиланд, в додзё близкого друга. Горе и гнев берут над ним верх, и он «срывается» во время спарринга с учениками. Когда одного из учеников убивают так же, как и Намико, Кейси, наконец, находит улики, которые ему нужны для того, чтобы выследить убийцу своей жены и разгадать тайну, хранящуюся в глубине бирманских джунглей.



Продолжительность: 01:34:43
Качество видео: BDRip [Рип с BDRemux]

Видеокодек: Xvid
Битрейт видео: ~1740 kb/s
Размер кадра: 704 x 400
Аудио: AC3, 448 kb/s (6 ch), 48,0КГц (Русский)
Сэмпл: Скачать
General
Complete name : D:\Раздачи\Ninja.Shadow.of.a.Tear.2013.L2.BDRip.avi
Format : AVI
Format/Info : Audio Video Interleave
File size : 1.45 GiB
Duration : 1h 34mn
Overall bit rate : 2 198 Kbps
Writing application : VirtualDubMod 1.5.10.3 | www.virtualdub-fr.org || (build 2550/release)
Writing library : VirtualDubMod build 2550/release

Video
ID : 0
Format : MPEG-4 Visual
Format profile : Advanced Simple@L5
Format settings, BVOP : 1
Format settings, QPel : Yes
Format settings, GMC : No warppoints
Format settings, Matrix : Custom
Codec ID : XVID
Codec ID/Hint : XviD
Duration : 1h 34mn
Bit rate : 1 741 Kbps
Width : 704 pixels
Height : 400 pixels
Display aspect ratio : 16:9
Frame rate : 23.976 fps
Color space : YUV
Chroma subsampling : 4:2:0
Bit depth : 8 bits
Scan type : Progressive
Compression mode : Lossy
Bits/(Pixel*Frame) : 0.258
Stream size : 1.15 GiB (79%)
Writing library : XviD 73

Audio
ID : 1
Format : AC-3
Format/Info : Audio Coding 3
Mode extension : CM (complete main)
Codec ID : 2000
Duration : 1h 34mn
Bit rate mode : Constant
Bit rate : 448 Kbps
Channel(s) : 6 channels
Channel positions : Front: L C R, Side: L R, LFE
Sampling rate : 48.0 KHz
Bit depth : 16 bits
Compression mode : Lossy
Stream size : 304 MiB (20%)
Alignment : Split accross interleaves
Interleave, duration : 42 ms (1.00 video frame)
Interleave, preload duration : 500 ms
Скриншоты:


Время раздачи: 24/7 (до 10 скачавших)
[NNM-Club.me]_Ninja.Shadow.of.a.Tear.2013.L2.BDRip.avi.torrent
 Торрент: Платиновая раздача  Зарегистрирован
 
Скачать


Примагнититься
 Зарегистрирован:   05 Янв 2014 15:44:21
 Размер:   1,45 GB  (
 Рейтинг:   4,6 (Голосов: 113)
 Поблагодарили:   467
 Проверка:   Оформление проверено модератором 06 Янв 2014 11:02:47
Как cкачать  ·  Как раздать  ·  Правильно оформить  ·  Поднять ратио!  
alex-fox555w
Стаж: 5 лет 11 мес.
Сообщений: 39
100%
Откуда: chicago 1930
usa.gif
Ух !!! Спасибо !!! :новый_год: :новый_год:
Bormotalka
Стаж: 10 лет 10 мес.
Сообщений: 18
Ratio: 4,471
Поблагодарили: 3
18.84%
russia.gif
Как перевод, народ? Что смотреть надо, я уже понял ))) С плохим переводом спасла бы вторая английская дорожка.
Fulgor1981
Стаж: 8 лет 8 мес.
Сообщений: 131
Ratio: 2,936
99.4%
Откуда: Москва
russia.gif
Хм... фильм из разряда ... скинулись по рублю и сняли фильм.
Не интересный.... и банальный.
kis1andrew
Стаж: 10 лет
Сообщений: 57
Ratio: 1,086
Поблагодарили: 72
23.75%
Первый был классный. Аля бэк то 90-е )
Посмотрим что в этом
papakarlo10
Стаж: 8 лет
Сообщений: 151
Ratio: 7,004
21.8%
бои энергичные - это порадовало, остальное муть, особенно бросился в глаза момент со сбором фруктов.
Действительно аля 90-е, абсолютно несовременно, сюжет скучный и читаемый, как у большинства жанров боевых искусств последние несколько десятков лет. В общем фильм ради галочки.

Из последнего посоветовал бы лучше посмотреть "Молодой детектив Ди".
Erden1996
Стаж: 5 лет 10 мес.
Сообщений: 59
Ratio: 6,389
100%
Откуда: Азия,Каза​хстан,Акт​юбинск.​
kazakhstan.gif
а первая часть есть?

_________________
В тюрьме столько не сидят, сколько я сижу в интернете..
albrazhnik
Стаж: 8 лет 4 мес.
Сообщений: 1
Ratio: 28,519
8.82%
russia.gif
Фильм просто аффигителен. Понятное дело, что он банален, сценарий прост как 2 копейки. Но это фильм про драки, и они здесь просто шикарны. Постановка, хореография боевых сцен всё на высшем уровне. Ну и конечно наш любимый Юрий Бойко. Любителям хорошего мордобоя смотреть в особом порядке.
crazydiscoman
Стаж: 2 года 1 мес.
Сообщений: 1
Ratio: 4,714
25%
Сюжет конечно в целом банальный, но фильм напоминает старые добрые боевики вроде Рэмбо. Точнее смесь Рэмбо с типичными азиатскими боевиками. Неплохая хореография в целом сцены боев. Может прям шедевром для зрителя не будет, но и любителей классического боевика не разочарует.
Показать сообщения:   
Начать новую тему   Ответить на тему    Торрент-трекер NNM-Club -> Зарубежное кино -> Азиатское кино (HD*Rip/LQ, DVDRip, SATRip, VHSRip) Часовой пояс: GMT + 3
Страница 1 из 1