Классический форум-трекер
canvas not supported
Нас вместе: 4 065 055

Марс (2004) DVDRip


 
 
RSS
Начать новую тему   Ответить на тему    Торрент-трекер NNM-Club -> Отечественное кино -> Отечественные Фильмы (HD*Rip/LQ, DVDRip, SATRip, VHSRip)
Автор Сообщение
SJStillAlive ®
Покровитель талантов
 
Стаж: 7 лет 8 мес.
Сообщений: 1470
Ratio: 22,774
Раздал: 17,19 TB
Поблагодарили: 69365
100%
logo.gif
Марс (2004) DVDRip
Жанр: Комедия

Описание:
Каждый человек пытается убежать в поисках лучшей жизни. Убежать от людей, которые тебя окружают, от среды, в которой живешь и в конечном итоге от себя. Известный и непобедимый боксер Борис так и сделал — просто сел в поезд в неведомом ему направлении.

Проснувшись рано утром, он видит в рассветной дымке неоновые буквы «МАРС» — название станции и городка, все жители которого работают на фабрике мягких игрушек. Борис проведет в городе всего лишь сутки, но они навсегда изменят жизнь его обитателей…

Режиссер: Анна Меликян
Актеры: Гоша Куценко, Нана Кикнадзе, Артур Смольянинов, Надя Каменькович, Евгения Добровольская, Елена Морозова, Александра Скачкова

Продолжительность: 01:36:24



Видеокодек: Xvid
Битрейт видео: ~1859 Кбит/сек
Размер кадра: 656 х 368
Качество видео: DVDRip
Аудио: MP3, 2 канала, 160 Кбит/сек


Исходник
Марс (2004) DVD5
Общее
Полное имя : D:\Новая папка\Марс 1400 by SJStillALive.avi
Формат : AVI
Формат/Информация : Audio Video Interleave
Размер файла : 1,37 Гбайт
Продолжительность : 1 ч. 36 м.
Общий поток : 2028 Кбит/сек
Программа кодирования : VirtualDubMod 1.5.4.1 (build 2178/release)
Библиотека кодирования : VirtualDubMod build 2178/release

Видео
Идентификатор : 0
Формат : MPEG-4 Visual
Профиль формата : Advanced Simple@L5
Параметр BVOP формата : 1
Параметр QPel формата : Нет
Параметр GMC формата : Без точки перехода
Параметр матрицы формата : Выборочная
Идентификатор кодека : XVID
Идентификатор кодека/Подсказка : XviD
Продолжительность : 1 ч. 36 м.
Битрейт : 1859 Кбит/сек
Ширина : 656 пикс.
Высота : 368 пикс.
Соотношение сторон : 16:9
Частота кадров : 29,970 кадр/сек
Цветовое пространство : YUV
Подвыборка цветности : 4:2:0
Битовая глубина : 8 бит
Тип развёртки : Прогрессивная
Метод сжатия : С потерями
Бит/(Пиксели*Кадры) : 0.257
Размер потока : 1,25 Гбайт (92%)
Библиотека кодирования : XviD 1.2.1 (UTC 2008-12-04)

Аудио
Идентификатор : 1
Формат : MPEG Audio
Версия формата : Version 1
Профиль формата : Layer 3
Режим : Joint stereo
Расширение режима : MS Stereo
Идентификатор кодека : 55
Идентификатор кодека/Подсказка : MP3
Продолжительность : 1 ч. 36 м.
Вид битрейта : Постоянный
Битрейт : 160 Кбит/сек
Каналы : 2 канала
Частота : 48,0 КГц
Метод сжатия : С потерями
Размер потока : 110 Мбайт (8%)
Выравнивание : Соединение по промежуткам
Продолжительность промежутка : 67 мс. (2,00 видеокадра)
Время предзагрузки промежутка : 504 ms
Библиотека кодирования : LAME3.98r
Настройки программы : -m j -V 4 -q 2 -lowpass 17.5 -b 160
Язык : Russian
Скриншоты:




Время раздачи: практически ежедневно с 12 до 4 до 10 скачавших. На раздачу не возвращаюсь.

Все раздачи Марс на NNM-CLUB
[NNM-Club.ru]_Mars 1400 by SJStillALive.avi.torrent
 Торрент: Платиновая раздача  Зарегистрирован
 
Скачать


Примагнититься
 Зарегистрирован:   16 Ноя 2012 23:12:13
 Размер:   1,37 GB  (
 Рейтинг:   4,4 (Голосов: 42)
 Поблагодарили:   209
 Проверка:   Оформление проверено модератором 17 Ноя 2012 12:50:17
Как cкачать  ·  Как раздать  ·  Правильно оформить  ·  Поднять ратио!  
adonis72
Стаж: 8 лет 3 мес.
Сообщений: 7
Ratio: 1,558
48.53%
ukraine.gif
Класссссс!!!
Tearex
Стаж: 6 лет
Сообщений: 5
Ratio: 8,884
100%
Фильм "МАРС" - жемчужина современного российского кино! Это еще и тот случай, когда дебют режиссера настолько хорош, что последующие фильмы Анны Меликян пока не могут "дотянуться" до уровня "Марса" по мере условности, художественной цельности и волшебной, сюрреалистичной атмосфере... А еще фильм очень добрый, умный и философский.
Mikhail190
Стаж: 7 лет
Сообщений: 56
Ratio: 1,048
100%
Где можно найти этот фильм в лучшем качестве ?
KPoisk
Стаж: 9 лет 2 мес.
Сообщений: 134
Ratio: 5,804
Поблагодарили: 88
100%
Откуда: OttYDA
krevedko.png
Сочная картинка, хорошая операторская работа, отличная режиссура, много символических находок в плане съемки. Саундтрек очень украшает фильм.
RVS
Стаж: 8 лет 2 мес.
Сообщений: 360
Ratio: 7,425
Поблагодарили: 1291
35.08%
Откуда: Донбасс
ussr.gif
мда, прикольная комедия ... (сарказм)

_________________
Показать сообщения:   
Начать новую тему   Ответить на тему    Торрент-трекер NNM-Club -> Отечественное кино -> Отечественные Фильмы (HD*Rip/LQ, DVDRip, SATRip, VHSRip) Часовой пояс: GMT + 3
Страница 1 из 1