Классический форум-трекер
canvas not supported
Нас вместе: 4 064 224

Как развести миллионера (2014) HDTVRip [H.264] (серии 1-4 из 4)


 
 
RSS
Начать новую тему   Ответить на тему    Торрент-трекер NNM-Club -> Архив торрентов -> Архив Сериалов
Автор Сообщение
seperovych ®
Стаж: 8 лет 5 мес.
Сообщений: 1501
Ratio: 55,093
Раздал: 35,58 TB
Поблагодарили: 146117
100%
Откуда: Киев
ukraine.gif
Как развести миллионера (2014) HDTVRip [H.264] (серии 1-4 из 4)
Русское название: Как развести миллионера
Производство: "АРК-Фильм", Россия
Год выпуска: 2014
Жанр: Комедия

Режиссер: Василий Мищенко
Актеры: Михаил Шкловский, Вера Баханкова, Александр Сибирцев, Иван Лапин, Нелли Неведина, Василий Мищенко, Денис Ясик, Ирина Лосева, Ульяна Лаптева, София Елфимова, Ирина Цывина

Описание фильма:
Богатый и избалованный Кирилл Торопов заключает с друзьями пари: он очарует и приведет в ЗАГС пять невест, но все они его бросят, как только узнают, что он нищий. Так и происходит, но в пятую невесту, Нину, Торопов неожиданно для себя влюбляется. Однако Нина узнает о пари..



Продолжительность: ~ 00:44:00 серия
Качество видео: HDTVRip (Рип с HDTV 1080i)

Видеокодек: AVC/H.264
Битрейт видео: ~2000 Kbps
Размер кадра: 1024x576 (16:9)
Аудиокодек: AC3
Битрейт аудио: 2 ch, 192 Kbps
Код:
Общее
Уникальный идентификатор : 218848430619791817639440127816374491355 (0xA4A4ACB15BDC2C7BB3132E8E050118DB)
Полное имя : E:\DOWNLOADS\Как развести миллионера (2014) HDTVRip [H.264]\Как развести миллионера - 01 серия.mkv
Формат : Matroska
Версия формата : Version 2
Размер файла : 699 Мбайт
Продолжительность : 43 м.
Общий поток : 2232 Кбит/сек
Дата кодирования : UTC 2014-07-20 08:20:14
Программа кодирования : mkvmerge v6.1.0 ('Old Devil') built on Mar 4 2013 09:10:42
Библиотека кодирования : libebml v1.3.0 + libmatroska v1.4.0

Видео
Идентификатор : 1
Формат : AVC
Формат/Информация : Advanced Video Codec
Профиль формата : High@L4.1
Параметр CABAC формата : Да
Параметр ReFrames формата : 5 кадров
Идентификатор кодека : V_MPEG4/ISO/AVC
Продолжительность : 43 м.
Битрейт : 2038 Кбит/сек
Ширина : 1024 пикселя
Высота : 576 пикселей
Соотношение сторон : 16:9
Режим частоты кадров : Постоянный
Частота кадров : 25,000 кадров/сек
Цветовое пространство : YUV
Субдискретизация насыщенности : 4:2:0
Битовая глубина : 8 бит
Тип развёртки : Прогрессивная
Бит/(Пиксели*Кадры) : 0.138
Размер потока : 625 Мбайт (89%)
Библиотека кодирования : x264 core 142 r2431 ac76440
Настройки программы : cabac=1 / ref=5 / deblock=1:-1:-1 / analyse=0x3:0x113 / me=umh / subme=8 / psy=1 / psy_rd=1.00:0.15 / mixed_ref=1 / me_range=16 / chroma_me=1 / trellis=1 / 8x8dct=1 / cqm=0 / deadzone=21,11 / fast_pskip=1 / chroma_qp_offset=-3 / threads=6 / lookahead_threads=1 / sliced_threads=0 / nr=0 / decimate=1 / interlaced=0 / bluray_compat=0 / constrained_intra=0 / bframes=3 / b_pyramid=2 / b_adapt=2 / b_bias=0 / direct=3 / weightb=1 / open_gop=0 / weightp=2 / keyint=250 / keyint_min=25 / scenecut=40 / intra_refresh=0 / rc_lookahead=50 / rc=2pass / mbtree=1 / bitrate=2038 / ratetol=1.0 / qcomp=0.60 / qpmin=0 / qpmax=69 / qpstep=4 / cplxblur=20.0 / qblur=0.5 / vbv_maxrate=62500 / vbv_bufsize=78125 / nal_hrd=none / filler=0 / ip_ratio=1.40 / aq=1:1.00
Default : Да
Forced : Нет

Аудио
Идентификатор : 2
Формат : AC-3
Формат/Информация : Audio Coding 3
Расширение режима : CM (complete main)
Параметр Endianness формата : Big
Идентификатор кодека : A_AC3
Продолжительность : 43 м.
Вид битрейта : Постоянный
Битрейт : 192 Кбит/сек
Каналы : 2 канала
Расположение каналов : Front: L R
Частота : 48,0 КГц
Битовая глубина : 16 бит
Метод сжатия : С потерями
Размер потока : 60,2 Мбайт (9%)
Default : Да
Forced : Нет
Скриншоты:


Все раздачи сериала «Как развести миллионера»

Время раздачи: с 10.00 до 20.00
[NNM-Club.me]_Kak razvesti millionera (2014) HDTVRip [H.264].torrent
 Торрент: Платиновая раздача  Зарегистрирован
 
Скачать


Примагнититься
 Зарегистрирован:   20 Июл 2014 11:24:42
 Размер:   2,73 GB  (
 Рейтинг:   3,9 (Голосов: 35)
 Поблагодарили:   140
 Проверка:   Оформление проверено модератором 20 Июл 2014 23:01:40
Как cкачать  ·  Как раздать  ·  Правильно оформить  ·  Поднять ратио!  
Топик был перенесен из форума Отечественные сериалы в форум Архив Сериалов

Причина переноса: Раздающего не было 3 месяца и более.

Исправил релиз - напиши ЛС Алехаndr, дав ссылку на релиз.
Если нет ответа 24 часа - нажми на кнопку "Обратить внимание модераторов".
Показать сообщения:   
Начать новую тему   Ответить на тему    Торрент-трекер NNM-Club -> Архив торрентов -> Архив Сериалов Часовой пояс: GMT + 3
Страница 1 из 1