Интеллигентный торрент-трекер
canvas not supported
Нас вместе: 4 113 095

Гарри Поттер и кубок огня / Harry Potter And The Goblet Of Fire (2005) DVDRip [Hand Made Extended Cut]


 
 
RSS
Начать новую тему   Ответить на тему    Торрент-трекер NNM-Club -> Остальное -> hand made * video
Автор Сообщение
MAG3131 ®
RG NNM Club Video
Модератор Видео
 
Стаж: 6 лет 3 мес.
Сообщений: 2427
Ratio: 377,825
Поблагодарили: 83668
100%
Откуда: Санкт​-Пете​рбург​
russia.gif
Гарри Поттер и кубок огня (Расширенная версия) / Harry Potter And The Goblet Of Fire (Extended Cut) (2005) DVDRip
Русское название: Гарри Поттер и кубок огня (Расширенная версия)
Оригинальное название: Harry Potter And The Goblet Of Fire (Extended Cut)
Год выпуска: 2005
Жанр: Приключения, Семейный, Фэнтези

Описание фильма:
Гарри Поттер, Рон и Гермиона возвращаются на четвертый курс школы чародейства и волшебства «Хогвартс». При таинственных обстоятельствах Гарри отобран в число участников опасного соревнования — Турнира Трех Волшебников, однако проблема в том, что все его соперники — намного старше и сильнее.
К тому же, знаки указывают на возвращение Лорда Волдеморта. Вскоре Гарри предстоит побороться не только за победу в соревновании, но и, прежде всего, за свою жизнь.

Режиссер: Майк Ньюэлл
Актеры: Дэниэл Рэдклифф, Руперт Гринт, Эмма Уотсон, Роберт Паттинсон, Рэйф Файнс, Брендан Глисон, Алан Рикман, Майкл Гэмбон, Робби Колтрейн, Мэгги Смит

Продолжительность: 02:44:57
Перевод: Дублированный



Дата мировой премьеры: 06.11.2005
Дата российской премьеры: 22.12.2005
Дата выхода DVD релиза: 23.06.2009

Видеокодек: Xvid
Битрейт видео: ~1501 kbps avg
Размер кадра: 720x304
Качество видео: DVDRip

Аудио: 48 kHz, AC3 Dolby Digital, 3/2 (L,C,R,l,r) + LFE ch, 384 kbps
Профессиональный (полное дублирование)
Расширенная версия была получена путем врезания удаленных и расширенных сцен на свои места.
Добавленные сцены не отличаются по качеству видео от самого фильма.
Общее
Полное имя : E:\торренты на раздаче\Гарри Поттер 4 - Кубок Огня (Extended).avi
Формат : AVI
Формат/Информация : Audio Video Interleave
Профиль формата : OpenDML
Размер файла : 2,19 Гбайт
Продолжительность : 2 ч. 44 м.
Общий поток : 1898 Кбит/сек
Программа кодирования : VirtualDubModRus 1.5.10.2 (build 2542/release)
Библиотека кодирования : VirtualDubMod build 2542/release

Видео
Идентификатор : 0
Формат : MPEG-4 Visual
Профиль формата : Advanced Simple@L5
Параметр BVOP формата : 1
Параметр QPel формата : Нет
Параметр GMC формата : Без точки перехода
Параметр матрицы формата : Выборочная
Идентификатор кодека : XVID
Идентификатор кодека/Подсказка : XviD
Продолжительность : 2 ч. 44 м.
Битрейт : 1501 Кбит/сек
Ширина : 720 пикселей
Высота : 304 пикселя
Соотношение сторон : 2,35:1
Частота кадров : 25,000 кадров/сек
Цветовое пространство : YUV
Субдискретизация насыщенности : 4:2:0
Битовая глубина : 8 бит
Тип развёртки : Прогрессивная
Метод сжатия : С потерями
Бит/(Пиксели*Кадры) : 0.274
Размер потока : 1,73 Гбайт (79%)
Библиотека кодирования : XviD 1.2.1 (UTC 2008-12-04)

Аудио
Идентификатор : 1
Формат : AC-3
Формат/Информация : Audio Coding 3
Расширение режима : CM (complete main)
Параметр Endianness формата : Big
Идентификатор кодека : 2000
Продолжительность : 2 ч. 44 м.
Вид битрейта : Постоянный
Битрейт : 384 Кбит/сек
Каналы : 6 каналов
Расположение каналов : Front: L C R, Side: L R, LFE
Частота : 48,0 КГц
Битовая глубина : 16 бит
Метод сжатия : С потерями
Размер потока : 453 Мбайт (20%)
Выравнивание : Разделение по промежуткам
Продолжительность промежутка : 40 мс. (1,00 видеокадр)
Время предзагрузки промежутка : 500 мс.
Скриншоты:


Время раздачи: по возможности 24/7
[NNM-Club.ru]_Garri Potter 4 - Kubok Ognya (Extended).avi.torrent
 Торрент: Платиновая раздача  Зарегистрирован
 
Скачать


Примагнититься
 Зарегистрирован:   20 Июн 2013 03:52:35
 Размер:   2,19 GB  (
 Рейтинг:   4,7 (Голосов: 197)
 Поблагодарили:   664
 Проверка:   Оформление проверено модератором 20 Июн 2013 13:38:21
Как cкачать  ·  Как раздать  ·  Правильно оформить  ·  Поднять ратио!  
Arx1meD
Стаж: 8 лет 9 мес.
Сообщений: 274
Ratio: 13,039
Поблагодарили: 4080
100%
Откуда: Донецк
ussr.gif
Подскажите. Остальные фильмы в таком же качестве есть?
MAG3131 ®
RG NNM Club Video
Модератор Видео
 
Стаж: 6 лет 3 мес.
Сообщений: 2427
Ratio: 377,825
Поблагодарили: 83668
100%
Откуда: Санкт​-Пете​рбург​
russia.gif
Arx1meD

На данный момент мною выложены эти части:
Гарри Поттер и философский камень (Максимальная версия)
Гарри Поттер и тайная комната (Расширенная версия)
Гарри Поттер и узник Азкабана (Расширенная версия)
fik071
Стаж: 7 лет 6 мес.
Сообщений: 50
Ratio: 0,779
100%
Откуда: Калин​ингра​д​
russia.gif
MAG3131
Я так понимаю в доп вставках озвучка не отличается от оригинала? Или всё же будет заметна?
MAG3131 ®
RG NNM Club Video
Модератор Видео
 
Стаж: 6 лет 3 мес.
Сообщений: 2427
Ratio: 377,825
Поблагодарили: 83668
100%
Откуда: Санкт​-Пете​рбург​
russia.gif
fik071
А в честь чего сразу по три сообщения пишем?))
Озвучка не отличается.
fik071
Стаж: 7 лет 6 мес.
Сообщений: 50
Ratio: 0,779
100%
Откуда: Калин​ингра​д​
russia.gif
MAG3131
Интернет заглючил. Это случайно :)
Благодарю за быстрый ответ.
Arx1meD
Стаж: 8 лет 9 мес.
Сообщений: 274
Ratio: 13,039
Поблагодарили: 4080
100%
Откуда: Донецк
ussr.gif
MAG3131,
Остальные фильмы планируете выложить?
MAG3131 ®
RG NNM Club Video
Модератор Видео
 
Стаж: 6 лет 3 мес.
Сообщений: 2427
Ratio: 377,825
Поблагодарили: 83668
100%
Откуда: Санкт​-Пете​рбург​
russia.gif
Arx1meD

Планирую выложить в ближайшее время:

1. Орден Феникса (в таком же качестве)
2. Дары смерти 1 и 2 (доп сцены будут отличаться по качеству и будут переведены любительским переводом)
3. Принц-полукровка выкладываться мною пока не будет ибо там все доп сцены вообще не переведены, даже субтитров нету.

P.S. все это выложу после того как разберусь с Utorrent, а то после обновления переодически перестает раздавать все файлы.
Arx1meD
Стаж: 8 лет 9 мес.
Сообщений: 274
Ratio: 13,039
Поблагодарили: 4080
100%
Откуда: Донецк
ussr.gif
MAG3131,
Благодарю за труды.
MAG3131 ®
RG NNM Club Video
Модератор Видео
 
Стаж: 6 лет 3 мес.
Сообщений: 2427
Ratio: 377,825
Поблагодарили: 83668
100%
Откуда: Санкт​-Пете​рбург​
russia.gif
Arx1meD
Спасибо! Рад стараться.
maxim-b
Стаж: 7 лет 7 мес.
Сообщений: 151
Ratio: 6,204
100%
Откуда: Belarus
Странно сделаны рипы. Зачем то сделали конвертацию из 23,976 в 25,000 fps. Из за этого всё время дёргается изображение, особенно заметна на сценах с пролётом камеры. Очень жалко, конечно, это единственные рипы расширенной версии на 2,2GB, везде, почему то, только 3-х гиговые.
MrBek5000
Стаж: 2 года 10 мес.
Сообщений: 1
40%
MAG3131
Привет, а ты можешь сделать нормальную озвучку в 6, 7 и 8 части? А то в 8 там вообще не та озвучка, которая надо!)
Показать сообщения:   
Начать новую тему   Ответить на тему    Торрент-трекер NNM-Club -> Остальное -> hand made * video Часовой пояс: GMT + 3
Страница 1 из 1