Интеллигентный торрент-трекер
canvas not supported
Нас вместе: 4 137 316

В тылу врага / Behind Enemy Lines (2001) [720p] BDRip


 
 
RSS
Начать новую тему   Ответить на тему    Торрент-трекер NNM-Club -> Зарубежное кино -> Зарубежные Фильмы (HD, UHD-LQ)
Автор Сообщение
ra3wa ®
Модератор Видео
RG Releasers
Uploader 100+
 
Стаж: 7 лет 9 мес.
Сообщений: 9539
Ratio: 5713,119
Раздал: 268 TB
Поблагодарили: 1602616
100%
Откуда: Воронеж
russia.gif
В тылу врага / Behind Enemy Lines (2001) [720p] BDRip
Производство: США
Жанр: Боевик, триллер, драма, военный

Описание фильма:
Во время одной из разведывательных миссий, Бернетт фотографирует то, что не было предназначено для чужих глаз и его самолет сбивают. Летчик оказывается в тылу врага, который хочет уничтожить шпиона. Время идет, и адмирал Рейгарт, рискуя своей карьерой, решает нарушить все правила и организовать спасательную операцию, чтобы вернуть своего ученика…

Режиссер: Джон Мур
Актеры: Оуэн Уилсон, Джин Хэкмен, Гэбриел Махт, Чарльз Малик Уитфилд, Дэвид Кит, Олек Крупа, Жоаким ди Алмейда, Владимир Машков, Марко Игонда, Эял Поделл

Продолжительность: 01:45:48
Перевод: Дублированный
Язык субтитров: Русский, английский



Видеокодек: AVC/H.264
Битрейт видео: ~5086 Кбит/с
Размер кадра: 1280x544
Качество видео: BDRip
Аудио:
1. AC3, 6 ch, 384 Кбит/с - русский
2. AC3, 6 ch, 448 Кбит/с - английский
Общее
Уникальный идентификатор : 217830684898200420164573374286709505357 (0xA3E0A9F4611AFA7ABC27C8C34D39BD4D)
Полное имя : C:\Justlan\В тылу врага\V tylu vraga_720p.mkv
Формат : Matroska
Версия формата : Version 2
Размер файла : 4,37 Гбайт
Продолжительность : 1 ч. 45 м.
Общий поток : 5917 Кбит/сек
Программа кодирования : mkvmerge v4.4.0 ('Die Wiederkehr') сборка от Oct 31 2010 21:52:48
Библиотека кодирования : libebml v1.0.0 + libmatroska v1.0.0

Видео
Идентификатор : 1
Формат : AVC
Формат/Информация : Advanced Video Codec
Профиль формата : High@L4.1
Параметр CABAC формата : Да
Параметр ReFrames формата : 8 кадров
Режим смешивания : Header stripping
Идентификатор кодека : V_MPEG4/ISO/AVC
Продолжительность : 1 ч. 45 м.
Битрейт : 5086 Кбит/сек
Ширина : 1280 пикселей
Высота : 544 пикселя
Соотношение сторон : 2,35:1
Частота кадров : 23,976 кадра/сек
Цветовое пространство : YUV
Субдискретизация насыщенности : 4:2:0
Битовая глубина : 8 бит
Тип развёртки : Прогрессивная
Бит/(Пиксели*Кадры) : 0.305
Размер потока : 3,67 Гбайт (84%)
Библиотека кодирования : x264 core 114 r1900 60ef1f8
Default : Да
Forced : Нет

Аудио #1
Идентификатор : 2
Формат : AC-3
Формат/Информация : Audio Coding 3
Расширение режима : CM (complete main)
Режим смешивания : Header stripping
Идентификатор кодека : A_AC3
Продолжительность : 1 ч. 45 м.
Вид битрейта : Постоянный
Битрейт : 384 Кбит/сек
Каналы : 6 каналов
Расположение каналов : Front: L C R, Side: L R, LFE
Частота : 48,0 КГц
Битовая глубина : 16 бит
Метод сжатия : С потерями
Задержка видео : 3 с. 3 мс.
Размер потока : 291 Мбайт (6%)
Язык : Russian
Default : Да
Forced : Нет

Аудио #2
Идентификатор : 3
Формат : AC-3
Формат/Информация : Audio Coding 3
Расширение режима : CM (complete main)
Режим смешивания : Header stripping
Идентификатор кодека : A_AC3
Продолжительность : 1 ч. 45 м.
Вид битрейта : Постоянный
Битрейт : 448 Кбит/сек
Каналы : 6 каналов
Расположение каналов : Front: L C R, Side: L R, LFE
Частота : 48,0 КГц
Битовая глубина : 16 бит
Метод сжатия : С потерями
Размер потока : 339 Мбайт (8%)
Язык : English
Default : Нет
Forced : Нет

Текст #1
Идентификатор : 4
Формат : UTF-8
Идентификатор кодека : S_TEXT/UTF8
Идентификатор кодека/Информация : UTF-8 Plain Text
Язык : Russian
Default : Да
Forced : Нет

Текст #2
Идентификатор : 5
Формат : UTF-8
Идентификатор кодека : S_TEXT/UTF8
Идентификатор кодека/Информация : UTF-8 Plain Text
Язык : English
Default : Нет
Forced : Нет
Скриншоты:



Время раздачи: Круглосуточно до 10 скачавших
 Торрент: Платиновая раздача  Зарегистрирован
 
Скачать


 Зарегистрирован:   29 Авг 2012 17:16:22
 Размер:   4,37 GB  (
 Рейтинг:   4,5 (Голосов: 44)
 Поблагодарили:   122
 Проверка:   Оформление проверено модератором 29 Авг 2012 18:04:49
Как cкачать  ·  Как раздать  ·  Правильно оформить  ·  Поднять ратио!  
AntiGonus
Стаж: 11 лет 6 мес.
Сообщений: 65
Ratio: 13,834
Поблагодарили: 105
100%
russia.gif
Про Машкова не написали а он в фильме играет далеко не так мало!

_________________
Не все раздачи бывают удачными.
Показать сообщения:   
Начать новую тему   Ответить на тему    Торрент-трекер NNM-Club -> Зарубежное кино -> Зарубежные Фильмы (HD, UHD-LQ) Часовой пояс: GMT + 3
Страница 1 из 1

День смеха и юмора отмечается 1 апреля. В этот день принято шутить и разыгрывать друзей, коллег по работе, домашних, словом всех, с кем Вам предстоит увидеться в этот праздник – первое апреля. Первоапрельские розыгрыши, приколы на 1 апреля, первоапрельские шутки должны быть веселыми и безобидными. Приколы на 1 апреля, как правило, удаются в том случае, если человек забыл какой сегодня месяц и день, словом, забыл про 1 апреля – день смеха, шуток, день дурака.

Желаем Вам много улыбок и хорошего настроения в этот день!
С Уважением, администрация NNM-Club :)