Интеллигентный торрент-трекер
canvas not supported
Нас вместе: 4 187 381

Атлантида / Cold Skin (2017) BDRip [H.264/1080p] [EN]


 
 
RSS
Начать новую тему   Ответить на тему    Торрент-трекер NNM-Club -> Зарубежное кино -> Фильмы в оригинале (HD)
Автор Сообщение
smaster67 ®
Модератор Видео
Покровитель талантов Uploader 300+
Стаж: 8 лет 7 мес.
Сообщений: 6874
Ratio: 213,853
Поблагодарили: 203741
100%
Атлантида / Cold Skin (2017) BDRip [H.264/1080p] [EN]

Производство: Испания, Франция / Babieka, Kanzaman, Ink Connection, Gran Babieka, Pontas Film & Literary Agency
Жанр: ужасы, фантастика, триллер, приключения

Режиссер: Ксавье Жанс
Актеры: Рэй Стивенсон, Дэвид Оукс, Аура Гарридо, Уинслоу Иваки, Джон Бенфилд, Бен Темпле, Иван Гонсалес, Алехандро Род, Жюльен Блашке, Дамиан Монтесдеока, Израэль Бодеро, Роберто Ринкон

Описание:
После длительного плавания молодой метеоролог Френд прибывает на затерянный в океане остров принять годичную вахту на метеостанции. На острове оказывается лишь суровый и немногословный смотритель маяка Грюнер. Френд довольно быстро понимает, что Грюнер что-то скрывает, старый метеоролог попал в какую-то передрягу, а остров кажется необитаемым только на первый взгляд.


Возраст: 16+ (зрителям, достигшим 16 лет)

Продолжительность: 01:47:19
Качество видео: BDRip
Перевод: Отсутствует
Язык озвучки: Английский
Субтитры: Отсутствуют

Видео: AVC, 1920x800 (2.40:1), 12825 kbps, 24 fps, 0.348 bpp
Аудио: английский / AC3 / 5.1 / 48 kHz / 640 kbps /
Код: выделить все
General
Unique ID                               Cold.Skin.2018.1080p.Bluray.X264-EVO.mkv
Format                                   : Matroska
Format version                           : Version 4 / Version 2
File size                                : 10.3 GiB
Duration                                 : 1 h 47 min
Overall bit rate                         : 13.7 Mb/s
Movie name                               : EVO
Encoded date                             : UTC 2018-02-08 23:41:27
Writing application                      : mkvmerge v6.7.0 ('Back to the Ground') 64bit built on Jan  8 2014 15:10:52
Writing library                          : libebml v1.3.0 + libmatroska v1.4.1

Video
ID                                       : 1
Format                                   : AVC
Format/Info                              : Advanced Video Codec
Format profile                           : High@L4.1
Format settings, CABAC                   : Yes
Format settings, ReFrames                : 4 frames
Codec ID                                 : V_MPEG4/ISO/AVC
Duration                                 : 1 h 47 min
Bit rate                                 : 12.8 Mb/s
Nominal bit rate                         : 13.9 Mb/s
Width                                    : 1 920 pixels
Height                                   : 800 pixels
Display aspect ratio                     : 2.40:1
Frame rate mode                          : Constant
Frame rate                               : 24.000 FPS
Color space                              : YUV
Chroma subsampling                       : 4:2:0
Bit depth                                : 8 bits
Scan type                                : Progressive
Bits/(Pixel*Frame)                       : 0.348
Stream size                              : 9.61 GiB (93%)
Writing library                          : x264 core 142 r2479 dd79a61
Encoding settings                        : cabac=1 / ref=1 / deblock=1:0:0 / analyse=0x3:0x113 / me=hex / subme=2 / psy=1 / psy_rd=1.00:0.00 / mixed_ref=0 / me_range=16 / chroma_me=1 / trellis=0 / 8x8dct=1 / cqm=0 / deadzone=21,11 / fast_pskip=1 / chroma_qp_offset=0 / threads=12 / lookahead_threads=4 / sliced_threads=0 / nr=0 / decimate=1 / interlaced=0 / bluray_compat=0 / constrained_intra=0 / bframes=3 / b_pyramid=2 / b_adapt=1 / b_bias=0 / direct=1 / weightb=1 / open_gop=0 / weightp=1 / keyint=240 / keyint_min=24 / scenecut=40 / intra_refresh=0 / rc_lookahead=10 / rc=abr / mbtree=1 / bitrate=13891 / ratetol=1.0 / qcomp=0.60 / qpmin=0 / qpmax=69 / qpstep=4 / vbv_maxrate=62500 / vbv_bufsize=78125 / nal_hrd=none / filler=0 / ip_ratio=1.40 / aq=1:1.00
Default                                  : Yes
Forced                                   : No
Color range                              : Limited
Color primaries                          : BT.709
Transfer characteristics                 : BT.709
Matrix coefficients                      : BT.709

Audio
ID                                       : 2
Format                                   : AC-3
Format/Info                              : Audio Coding 3
Mode extension                           : CM (complete main)
Format settings, Endianness              : Big
Codec ID                                 : A_AC3
Duration                                 : 1 h 47 min
Bit rate mode                            : Constant
Bit rate                                 : 640 kb/s
Channel(s)                               : 6 channels
Channel positions                        : Front: L C R, Side: L R, LFE
Sampling rate                            : 48.0 kHz
Frame rate                               : 31.250 FPS (1536 spf)
Compression mode                         : Lossy
Delay relative to video                  : -5 ms
Stream size                              : 491 MiB (5%)
Title                                    : Surround
Language                                 : English
Default                                  : Yes
Forced                                   : No

Menu
00:00:00.000                             : :00:00:00.000
00:13:28.416                             : :00:13:28.333
00:25:56.041                             : :00:25:55.917
00:39:05.666                             : :00:39:05.542
00:52:51.916                             : :00:52:51.792
01:06:24.916                             : :01:06:24.833
01:19:25.041                             : :01:19:24.917
01:32:34.291                             : :01:32:34.167

Скриншоты:



Все одноименные релизы в Клубе

Время раздачи: с 13:00 до 23:00
[NNM-Club.me]_Cold.Skin.2018.1080p.Bluray.X264-EVO.mkv.torrent
 Торрент: Золотая раздача  Зарегистрирован
 
Зарегистрируйтесь и скачайте торрент!
51,7 KB
Free Leech
Примагнититься
 Зарегистрирован:   09 Фев 2018 11:14:53
 Размер:   10,3 GB  (
 Рейтинг:    (Голосов: 6)
 Поблагодарили:   35
 Проверка:   Оформление проверено модератором 09 Фев 2018 11:17:23
Как cкачать  ·  Как раздать  ·  Правильно оформить  ·  Поднять ратио!  
BDRemux4K
Стаж: 23 дня
Сообщений: 33
Ratio: 0,133
Поблагодарили: 146
:выпивают:
Never​mindn​ow​
Стаж: 2 мес. 19 дней
Сообщений: 30
Ratio: 4,473
100%
nepal.gif
Что за бред ?? Отрезал русскую дорожку и фильм в оригинале? Только вводит в заблуждение.
JamesD
Только чтение
Стаж: 7 лет 5 мес.
Сообщений: 506
Ratio: 1,366
Поблагодарили: 566
40.8%
ukraine.gif
Nevermindnow писал(а): Перейти к сообщению
Что за бред ?? Отрезал русскую дорожку и фильм в оригинале? Только вводит в заблуждение.

В какое именно заблуждение? И на кой, к примеру, мне закачивать лишние 1.5 Гига дорожки, которые я не планирую слушать?

_________________
###tor_blocked | ##.request
JamesD
Только чтение
Стаж: 7 лет 5 мес.
Сообщений: 506
Ratio: 1,366
Поблагодарили: 566
40.8%
ukraine.gif
Фильм в самом начале приятно удивляет быстрым переходом событий и неприятно удивляет ужасной графикой плавающих дельфинов на скорости парохода с физикой передвижения супермена или других летающих супергероев.
Однако есть моменты, заставляющие плеваться:
Вот эти натянутые презервативы сюжетные повороты и неурядицы мешают нормально наслаждаться фильмом.

_________________
###tor_blocked | ##.request
Показать сообщения:   
Начать новую тему   Ответить на тему    Торрент-трекер NNM-Club -> Зарубежное кино -> Фильмы в оригинале (HD) Часовой пояс: GMT + 3
Страница 1 из 1