Интеллигентный торрент-трекер
canvas not supported
Нас вместе: 4 137 647

VA - Sgt. Pepper's Lonely Heart Club Band - Original Sound track (1978) [APE|Lossless]<OST/Rock>


 
 
RSS
Начать новую тему   Ответить на тему    Торрент-трекер NNM-Club -> Other Styles -> OST (Lossless)
Автор Сообщение
PlaNed ®
Стаж: 6 лет 2 мес.
Сообщений: 1358
Ratio: 998,729
Поблагодарили: 67302
38.88%
Откуда: The Net!
bulgaria.gif
VA - Sgt. Pepper's Lonely Heart Club Band - Original Sound track (1978)
Год: 1978
Жанр: OST/Rock
Лейбл: PolyGram International Music BV {31455 7076-2}

Продолжительность: 01:23:12

Кодек: APE
Битрейт: Lossless

Трек лист:

01. Introducing Sgt. Pepper's Lonely Hearts Club Band [04:42]
02. "Sgt. Pepper's Lonely Hearts Club Band" - The Bee Gees and Paul Nicholas [01:56]
03. "With a Little Help from My Friends" - Peter Frampton and The Bee Gees [02:46]
04. "Here Comes the Sun" - by Sandy Farina [03:45]
05. "Getting Better" - performed by Peter Frampton and The Bee Gees [02:46]
06. "Lucy in the Sky with Diamonds"- Dianne Steinberg and Stargard
07. "I Want You [0She's So Heavy]" - G. Martin, P. Frampton and Toto, D. Pleasance, D. Steinberg, P. Nicholas, The Bee Gees and Stargard [06:31]
08. "Good Morning Good Morning" - performed by Paul Nicholas, Peter Frampton and The Bee Gees [01:58]
09. "She's Leaving Home" - Steven Tyler, The Bee Gees, Jay MacIntosh and John Wheeler[02:41]
10. "You Never Give Me Your Money" - Paul Nicholas and Dianne Steinberg [03:07]
11. "Oh! Darling" - Robin Gibb [03:21]
12. "Maxwell's Silver Hammer" - Steve Martin and the vocal chorus [04:31]
13. Rise To Stardom Suite [05:11]
"Polythene Pam" - The Bee Gees [00:38]
"She Came in Through the Bathroom Window" - Peter Frampton and The Bee Gees [01:46]
"Nowhere Man" - The Bee Gees [01:14]
"Sgt. Pepper's Lonely Hearts Club Band (Reprise) reprise" - Peter Frampton and The Bee Gees [01:33]

Продолжительность: 00:41:17
Код:

Exact Audio Copy V0.99 prebeta 4 from 23. January 2008

Отчёт EAC об извлечении, выполненном 17. ноября 2009, 19:12

Various Artists / Sgt. Pepper's Lonely Hearts Club Band - Disc 1

Дисковод: PLEXTOR DVDR   PX-800A   Adapter: 0  ID: 0

Режим чтения                 : Достоверность
Использование точного потока : Да
Отключение кэша аудио        : Да
Использование указателей C2  : Нет

Коррекция смещения при чтении                     : 48
Способность читать области Lead-in и Lead-out     : Нет
Заполнение пропущенных сэмплов тишиной            : Да
Удаление блоков с тишиной в начале и конце        : Нет
При вычислениях CRC использовались нулевые сэмплы : Да
Интерфейс                                         : Встроенный Win32-интерфейс для Win NT/2000

Выходной формат : Внутренние WAV-операции
Формат сэмплов  : 44.100 Гц; 16 бит; стерео

TOC извлечённого CD

     Трек |   Старт  | Длительность | Начальный сектор | Конечный сектор
    ---------------------------------------------------------------------
       1  |  0:00.00 |    4:42.15   |           0      |      21164
       2  |  4:42.15 |    3:05.68   |       21165      |      35107
       3  |  7:48.08 |    2:46.47   |       35108      |      47604
       4  | 10:34.55 |    3:41.40   |       47605      |      64219
       5  | 14:16.20 |    6:33.20   |       64220      |      93714
       6  | 20:49.40 |    1:58.15   |       93715      |     102579
       7  | 22:47.55 |    2:40.68   |      102580      |     114647
       8  | 25:28.48 |    3:08.27   |      114648      |     128774
       9  | 28:37.00 |    3:29.00   |      128775      |     144449
      10  | 32:06.00 |    3:59.40   |      144450      |     162414
      11  | 36:05.40 |    5:11.28   |      162415      |     185767

Характеристики диапазона извлечения и сообщения об ошибках

Выбранный диапазон

     Имя файла D:\Lossless\Sgt. Pepper's Lonely Heart Club Band-1978\CD-1\Sgt. Pepper's Lonely Heart Club Band-1978.wav

     Пиковый уровень 91.9 %
     Качество диапазона 100.0 %
     CRC копии 3EC91723
     Копирование... OK

Ошибок не произошло

Конец отчёта

Код:

-----------------------

DON'T MODIFY THIS FILE

-----------------------

PERFORMER: auCDtect Task Manager, ver. 1.5.1RC6 build 1.5.1.7
Copyright (c) 2008-2010 y-soft. All rights reserved
http://y-soft.org

ANALYZER: auCDtect: CD records authenticity detector, version 0.8.2
Copyright (c) 2004 Oleg Berngardt. All rights reserved.
Copyright (c) 2004 Alexander Djourik. All rights reserved.

FILE: Sgt. Pepper's Lonely Hearts Club Band CD1.ape
  Size: 280012516 Hash: 6B5F2A455CEC869AEC82F22DC69793B3 Accuracy: -m0
  Conclusion: CDDA 100%
  Signature: 1E4C21F4D4A4ABD0B6F08C699A53BF3C72428A66

Трек лист:

01. "Got To Get You Into My Life" - Earth, Wind and Fire [03:36]
02. "Strawberry Fields Forever" - Sandy Farina [03:31]
03. "When I'm Sixty Four" - Frankie Howerd and Sandy Farina [02:40]
04. "Mean Mr. Mustard" - Frankie Howerd/Steven Tyler, The Bee Gees and [02:46]
05. "Fixing a Hole" - George Burns [02:25]
06. "Because" - Alice Cooper and The Bee Gees [02:45]
07. The Death of Strawberry [03:24]
"Golden Slumbers" - Peter Frampton [01:39]
"Carry That Weight" - The Bee Gees [01:45]
08. "Come Together" - Aerosmith [03:46]
09. "Being for the Benefit of Mr. Kite!" Maurice Gibb, Peter Frampton, The Bee Gees and George Burns [03:12]
10. "The Long and Winding Road" Toto and Peter Frampton [03:40]
11. "A Day in the Life" - Barry Gibb and The Bee Gees
12. "Get Back" - Billy Preston [02:56]
13. "Sgt. Pepper's Lonely Hearts Club Band (Finale)" - The cast [02:13]

Продолжительность: 00:41:55
Код:

Exact Audio Copy V0.99 prebeta 4 from 23. January 2008

Отчёт EAC об извлечении, выполненном 17. ноября 2009, 19:23

Various / Sgt. Pepper's Lonely Hearts Club Band [disc 2]

Дисковод: PLEXTOR DVDR   PX-800A   Adapter: 0  ID: 0

Режим чтения                 : Достоверность
Использование точного потока : Да
Отключение кэша аудио        : Да
Использование указателей C2  : Нет

Коррекция смещения при чтении                     : 48
Способность читать области Lead-in и Lead-out     : Нет
Заполнение пропущенных сэмплов тишиной            : Да
Удаление блоков с тишиной в начале и конце        : Нет
При вычислениях CRC использовались нулевые сэмплы : Да
Интерфейс                                         : Встроенный Win32-интерфейс для Win NT/2000

Выходной формат : Внутренние WAV-операции
Формат сэмплов  : 44.100 Гц; 16 бит; стерео

TOC извлечённого CD

     Трек |   Старт  | Длительность | Начальный сектор | Конечный сектор
    ---------------------------------------------------------------------
       1  |  0:00.00 |    3:35.52   |           0      |      16176
       2  |  3:35.52 |    3:30.35   |       16177      |      31961
       3  |  7:06.12 |    2:38.15   |       31962      |      43826
       4  |  9:44.27 |    2:39.00   |       43827      |      55751
       5  | 12:23.27 |    2:24.00   |       55752      |      66551
       6  | 14:47.27 |    2:44.43   |       66552      |      78894
       7  | 17:31.70 |    3:22.65   |       78895      |      94109
       8  | 20:54.60 |    3:46.02   |       94110      |     111061
       9  | 24:40.62 |    3:11.55   |      111062      |     125441
      10  | 27:52.42 |    3:39.25   |      125442      |     141891
      11  | 31:31.67 |    5:12.53   |      141892      |     165344
      12  | 36:44.45 |    2:56.42   |      165345      |     178586
      13  | 39:41.12 |    2:14.23   |      178587      |     188659

Характеристики диапазона извлечения и сообщения об ошибках

Выбранный диапазон

     Имя файла D:\Lossless\Sgt. Pepper's Lonely Heart Club Band-1978\CD-2\Various - Sgt. Pepper's Lonely Hearts Club Band [disc 2].wav

     Пиковый уровень 91.3 %
     Качество диапазона 100.0 %
     CRC копии 04C3421C
     Копирование... OK

Ошибок не произошло

Конец отчёта

Код:

-----------------------

DON'T MODIFY THIS FILE

-----------------------

PERFORMER: auCDtect Task Manager, ver. 1.5.1RC6 build 1.5.1.7
Copyright (c) 2008-2010 y-soft. All rights reserved
http://y-soft.org

ANALYZER: auCDtect: CD records authenticity detector, version 0.8.2
Copyright (c) 2004 Oleg Berngardt. All rights reserved.
Copyright (c) 2004 Alexander Djourik. All rights reserved.

FILE: Sgt. Pepper's Lonely Hearts Club Band CD2.ape
  Size: 272519268 Hash: EAF6F783BEA7B03E3538C049F8EC6144 Accuracy: -m0
  Conclusion: CDDA 100%
  Signature: 24FACB1FE826088707A41C723D4C8BF1F129D05B

Время раздачи: 24/7
 Торрент: Платиновая раздача  Зарегистрирован
 
Скачать


 Зарегистрирован:   29 Май 2012 13:57:00
 Размер:   537 MB  (
 Рейтинг:    (Голосов: 8)
 Поблагодарили:   31
 Проверка:   Оформление проверено модератором 30 Май 2012 04:41:24
Как cкачать  ·  Как раздать  ·  Правильно оформить  ·  Поднять ратио!  
Топик был перенесен из форума Rock (Lossless) в форум Lossless


J_Man
alekxua
Стаж: 1 год 4 мес.
Сообщений: 57
Ratio: 149,888
92.54%
Спасибо. Интересно. Великая музыка. Даже в этих версиях.
Показать сообщения:   
Начать новую тему   Ответить на тему    Торрент-трекер NNM-Club -> Other Styles -> OST (Lossless) Часовой пояс: GMT + 3
Страница 1 из 1

День смеха и юмора отмечается 1 апреля. В этот день принято шутить и разыгрывать друзей, коллег по работе, домашних, словом всех, с кем Вам предстоит увидеться в этот праздник – первое апреля. Первоапрельские розыгрыши, приколы на 1 апреля, первоапрельские шутки должны быть веселыми и безобидными. Приколы на 1 апреля, как правило, удаются в том случае, если человек забыл какой сегодня месяц и день, словом, забыл про 1 апреля – день смеха, шуток, день дурака.

Желаем Вам много улыбок и хорошего настроения в этот день!
С Уважением, администрация NNM-Club :)