Интеллигентный торрент-трекер
canvas not supported
Нас вместе: 4 339 648

Depeche Mode - Spirit (2017) [FLAC 2.0|24/192|image+.cue|Vinyl-Rip] <Synth-Pop>


 
 
RSS
Начать новую тему   Ответить на тему    Торрент-трекер NNM-Club -> HD Audio и Многоканальная Музыка -> Vinyl-Rip и Hand-Made
Автор Сообщение
Lazyra ®
Модератор Electronic
RG Music
 
Стаж: 6 лет 3 мес.
Сообщений: 4705
Ratio: 1756,848
Раздал: 59,9 TB
Поблагодарили: 99452
100%
Откуда: Владимир
russia.gif
Depeche Mode - Spirit (2017)


Год: 2017
Жанр: Synth-Pop
Продолжительность: 00:49:33
Лейбл: Columbia / Mute
Каталог №: 88985 41165 1
Сканы: Комплект
Тип рипа: image+.cue
Формат записи: 24/192
Формат раздачи: 24/192
Кодек: FLAC 2.0
Треклист:
A1. Going Backwards (5:43)
A2. Where's The Revolution (4:59)
A3. The Worst Crime (3:48)
A4. Scum (3:14)
B1. You Move (3:50)
B2. Cover Me (4:52)
B3. Eternal (2:25)
B4. Poison Heart (3:17)
C1. So Much Love (4:29)
C2. Poorman (4:26)
C3. No More (This Is The Last Time) (3:14)
C4. Fail (5:07)
Источник оцифровки: asdfvl
Код класса состояния винила: Mint
Устройство воспроизведения: Technics SL-1210MK2
Картридж: Lyra Delos
Предварительный усилитель: Musical Fidelity V-LPS
АЦП: E-MU 1616M PCIe
Программа-оцифровщик: Sound Forge Audio Studio 10.0
Обработка: Ручное удаление заметных кликов
Код: выделить все


Общее
Полное имя                               : C:\Users\Downloads\Depeche Mode - 2017 - Spirit (2LP, EU, 88985 41165 1) [24-192]\Depeche Mode - Spirit - Side A.flac
Формат                                   : FLAC
Формат/Информация                        : Free Lossless Audio Codec
Размер файла                             : 690 Мбайт
Продолжительность                        : 17 м.
Режим общего битрейта                    : Переменный
Общий поток                              : 5419 Кбит/сек
Альбом                                   : Spirit
Трек/Всего                               : 4
Исполнитель                              : Depeche Mode
Жанр                                     : Synth-pop, Industrial
Дата записи                              : 2017
Примечание                               : 2LP, EU, 88985 41165 1, Etched
cuesheet                                 : REM GENRE Synth-pop, Industrial / REM DATE 2017 / REM COMMENT 2LP, EU, 88985 41165 1, Etched / PERFORMER "Depeche Mode" / TITLE "Spirit" / FILE "Depeche Mode - Spirit - Side A.flac" WAVE /   TRACK 01 AUDIO /     TITLE "Going Backwards" /     INDEX 01 00:00:00 /   TRACK 02 AUDIO /     TITLE "Where's The Revolution" /     INDEX 01 05:44:00 /   TRACK 03 AUDIO /     TITLE "The Worst Crime" /     INDEX 01 10:43:00 /   TRACK 04 AUDIO /     TITLE "Scum" /     INDEX 01 14:31:30
INFO                                     :  / VinylRip by asdfvl / Technics SL-1210MK2 + Lyra Delos / Musical Fidelity V-LPS / E-MU 1616M PCIe

Аудио
Формат                                   : FLAC
Формат/Информация                        : Free Lossless Audio Codec
Продолжительность                        : 17 м.
Вид битрейта                             : Переменный
Битрейт                                  : 5419 Кбит/сек
Каналы                                   : 2 канала
Частота                                  : 192 КГц
Битовая глубина                          : 24 бит
Размер потока                            : 690 Мбайт (100%)
Библиотека кодирования                   : libFLAC 1.3.0 (UTC 2013-05-26)

Общее
Полное имя                               : C:\Users\Downloads\Depeche Mode - 2017 - Spirit (2LP, EU, 88985 41165 1) [24-192]\Depeche Mode - Spirit - Side B.flac
Формат                                   : FLAC
Формат/Информация                        : Free Lossless Audio Codec
Размер файла                             : 545 Мбайт
Продолжительность                        : 14 м.
Режим общего битрейта                    : Переменный
Общий поток                              : 5274 Кбит/сек
Альбом                                   : Spirit
Трек/Всего                               : 4
Исполнитель                              : Depeche Mode
Жанр                                     : Synth-pop, Industrial
Дата записи                              : 2017
Примечание                               : 2LP, EU, 88985 41165 1, Etched
cuesheet                                 : REM GENRE Synth-pop, Industrial / REM DATE 2017 / REM COMMENT 2LP, EU, 88985 41165 1, Etched / PERFORMER "Depeche Mode" / TITLE "Spirit" / FILE "Depeche Mode - Spirit - Side B.flac" WAVE /   TRACK 05 AUDIO /     TITLE "You Move" /     INDEX 01 00:00:00 /   TRACK 06 AUDIO /     TITLE "Cover Me" /     INDEX 01 03:51:00 /   TRACK 07 AUDIO /     TITLE "Eternal" /     INDEX 01 08:43:00 /   TRACK 08 AUDIO /     TITLE "Poison Heart" /     INDEX 01 11:07:30
INFO                                     :  / VinylRip by asdfvl / Technics SL-1210MK2 + Lyra Delos / Musical Fidelity V-LPS / E-MU 1616M PCIe

Аудио
Формат                                   : FLAC
Формат/Информация                        : Free Lossless Audio Codec
Продолжительность                        : 14 м.
Вид битрейта                             : Переменный
Битрейт                                  : 5274 Кбит/сек
Каналы                                   : 2 канала
Частота                                  : 192 КГц
Битовая глубина                          : 24 бит
Размер потока                            : 545 Мбайт (100%)
Библиотека кодирования                   : libFLAC 1.3.0 (UTC 2013-05-26)

Общее
Полное имя                               : C:\Users\Downloads\Depeche Mode - 2017 - Spirit (2LP, EU, 88985 41165 1) [24-192]\Depeche Mode - Spirit - Side C.flac
Формат                                   : FLAC
Формат/Информация                        : Free Lossless Audio Codec
Размер файла                             : 663 Мбайт
Продолжительность                        : 17 м.
Режим общего битрейта                    : Переменный
Общий поток                              : 5355 Кбит/сек
Альбом                                   : Spirit
Трек/Всего                               : 4
Исполнитель                              : Depeche Mode
Жанр                                     : Synth-pop, Industrial
Дата записи                              : 2017
Примечание                               : 2LP, EU, 88985 41165 1, Etched
cuesheet                                 : REM GENRE Synth-pop, Industrial / REM DATE 2017 / REM COMMENT 2LP, EU, 88985 41165 1, Etched / PERFORMER "Depeche Mode" / TITLE "Spirit" / FILE "Depeche Mode - Spirit - Side C.flac" WAVE /   TRACK 09 AUDIO /     TITLE "So Much Love" /     INDEX 01 00:00:00 /   TRACK 10 AUDIO /     TITLE "Poorman" /     INDEX 01 04:30:30 /   TRACK 11 AUDIO /     TITLE "No More (This Is The Last Time)" /     INDEX 01 08:56:30 /   TRACK 12 AUDIO /     TITLE "Fail" /     INDEX 01 12:10:00
INFO                                     :  / VinylRip by asdfvl / Technics SL-1210MK2 + Lyra Delos / Musical Fidelity V-LPS / E-MU 1616M PCIe

Аудио
Формат                                   : FLAC
Формат/Информация                        : Free Lossless Audio Codec
Продолжительность                        : 17 м.
Вид битрейта                             : Переменный
Битрейт                                  : 5355 Кбит/сек
Каналы                                   : 2 канала
Частота                                  : 192 КГц
Битовая глубина                          : 24 бит
Размер потока                            : 663 Мбайт (100%)
Библиотека кодирования                   : libFLAC 1.3.0 (UTC 2013-05-26)








Время раздачи: 24/7
[NNMClub.to]_Depeche Mode - 2017 - Spirit (2LP, EU, 88985 41165 1) [24-192].torrent
 Торрент: Платиновая раздача  Зарегистрирован
 
Примагнититься

Скачать
 Зарегистрирован:   20 Мар 2017 11:46:32
 Размер:   1,89 GB  (
 Рейтинг:   4,9 (Голосов: 70)
 Поблагодарили:   292
 Проверка:   Оформление проверено модератором 20 Мар 2017 13:57:20
Как cкачать  ·  Как раздать  ·  Правильно оформить  ·  Поднять ратио!  
IGS_63
Стаж: 6 лет 9 мес.
Сообщений: 84
Ratio: 21,972
100%
ussr.gif
Going Backwards - офигительная вЭсчь!

_________________
Long Live Rock'n'Roll !
sAhaslon
Стаж: 6 лет 2 мес.
Сообщений: 11
Ratio: 10,488
89.66%
russia.gif
Where's the Revolution :стеб:
https://www.youtube.com/watch?v=jsCR05oKROA
SlavaZ123
Стаж: 4 года 8 мес.
Сообщений: 1
Ratio: 52,902
100%
No More. Очень красивая композиция. В классическом стиле Ultra
alexesgg
Стаж: 6 лет 9 мес.
Сообщений: 15
Ratio: 14,525
34.71%
zimbabwe.gif
Великолепный альбом!
Lazyra
СПАСИБО!
yacve​toche​k​
Стаж: 7 лет 5 мес.
Сообщений: 1754
Ratio: 13,24
Раздал: 7,241 TB
Поблагодарили: 4623
100%
Откуда: Магни​тогор​ск​
russia.gif
повидло

_________________
Обязательно заходите в и что-нибудь оставьте в камментах!
VINIL MAN
Виниловый маньяк
Стаж: 7 лет 4 мес.
Сообщений: 8960
Ratio: 107,792
Раздал: 2,666 TB
Поблагодарили: 33691
100%
Откуда: Переяслав
ukraine.gif
Lazyra
ГрешенЪ. БылЪ и у мине период увлечени энтой грюпой. :смущение:
Хороши элбумЪ!

_________________
Я не собираюсь менять мир, я просто хочу перевязать вам раны... Ян Андерсон
nnmf500
Стаж: 8 лет 10 мес.
Сообщений: 7
Ratio: 12,203
0.17%
Scum to good too
Andrey Marchenko
 
Стаж: 6 лет
Сообщений: 690
Ratio: 19,963
Поблагодарили: 15591
100%
Откуда: Иркутск
russia.gif
В принципе, все выше отписавшиеся, если бы намеренно не коверкали русскую речь и ее написание, то и так был бы все понятно... а так понты.

_________________
Бойся козла спереди, коня — сзади, дурака — со всех сторон. (За друга)
dmitr​i2466​0​
Стаж: 3 года 2 мес.
Сообщений: 119
Ratio: 5,172
98.87%
russia.gif
Медленно играет по сравнению с CD
Bolivia Peru

Online
Стаж: 4 года 7 мес.
Сообщений: 107
Ratio: 58,851
100%
Откуда: Плато Наска
bolivia.gif
Poison Heart (Tripped Mix) просто супер .....
Показать сообщения:   
Начать новую тему   Ответить на тему    Торрент-трекер NNM-Club -> HD Audio и Многоканальная Музыка -> Vinyl-Rip и Hand-Made Часовой пояс: GMT + 3
Страница 1 из 1