Интеллигентный торрент-трекер
canvas not supported
Нас вместе: 4 343 686

Юбилейный концерт Валерии "По серпантину" (2013) HDTV [H.264/1080i]


 
 
RSS
Начать новую тему   Ответить на тему    Торрент-трекер NNM-Club -> Театр и Музыкальное видео -> Концерты (HD)
Автор Сообщение
Alexin29 ®
Модератор Документалистики/TV
Стаж: 2 года 9 мес.
Сообщений: 1856
Ratio: 4791,732
Раздал: 25,6 TB
Поблагодарили: 118814
100%
ussr.gif
Юбилейный концерт Валерии "По серпантину" (2013) HDTV [H.264/1080i]
Производство: Валерия @ Иосиф Пригожин
Жанр: Концерт

Режиссер: Валерия @ Иосиф Пригожин
Исполнители: Валерия, Николай Басков, Иосиф Кобзон, Олег Митяев, Валерий Меладзе, Игорь Крутой

Описание:
Валерия: "Когда я составляла программу, передо мной стоял невероятно сложный выбор. За столько лет было спето сто с лишним песен. В этот раз мы подумали и собрали те песни, которые когда-то были хитами, но последние годы не входили в концертную программу". Вместе с Валерией на сцену выйдут: Николай Басков, Иосиф Кобзон, Игорь Крутой, Олег Митяев, Валерий Меладзе, Виктор Дробыш, Стас Пьеха, Олег Скрипка и группа "Вопли Видоплясова" и многие другие.

Продолжительность: 02:08:30
Качество видео: HDTV [1080i]

Видеокодек: AVC/H.264
Битрейт видео: ~6816 kb/s
Размер кадра: 1920х1080
Аудиокодек: AC3 2.0
Битрейт аудио: 192 kb/s VBR
Сэмпл: Ссылка
01. Валерия - "Моя Любовь"
02. Валерия - "The Sky belongs to me"
03. Валерия - Д.Тухманов - "Небо Звездами"
04. Валерия - И.Кобзон - "Ноктюрн"
05. Валерия - "Любовь настала"
06. Валерия - И.Крутой - "Я тебя отпустила"
07. Валерия - В.Меладзе - "Не теряй меня"
08. Валерия - В.Герела - "Parlami d'amore"
09. Валерия - "Дай Бог"
10. Валерия - А.Буйнов - "Сердце"
11. Валерия - О.Митяев - "Волшебный дом"
12. Валерия - Ария "Фигаро" из оперы "Севильский цирюльник" (за роялем Арсений Шульгин)
13. Валерия - "Рига-Москва"
14. Валерия - "С Ангелом"
15. Валерия - О.Скрипка - "Любовь"
16. Валерия - В.Дробыш - "Часики"
17. Валерия - А.Коган - "Обо мне вспоминай"
18. Валерия - В.Дробыш - "Нежность моя"
19. Валерия - С.Пьеха - "Ты грустишь"
20. Анна Шульгина - "Прости"
21. Валерия - "Ты где-то там"
22. Валерия - "Не обижай меня"
23. Валерия - Н.Басков - "Сохранив любовь"
24. Валерия - "Самолет"
25. Валерия - "Капелькою"
26. Валерия - "По серпантину"
27. Валерия - "Таю"
28. Валерия - "Метелица"
Код: выделить все

Общее
Идентификатор                            : 16 (0x10)
Полное имя                               : Valeriya_Serpantin_HD.ts
Формат                                   : MPEG-TS
Размер файла                             : 6,48 Гбайт
Продолжительность                        : 2 ч. 8 м.
Режим общего битрейта                    : Переменный
Общий поток                              : 7223 Кбит/сек

Видео
Идентификатор                            : 1001 (0x3E9)
Идентификатор меню                       : 1 (0x1)
Формат                                   : AVC
Формат/Информация                        : Advanced Video Codec
Профиль формата                          : High@L4.1
Параметр CABAC формата                   : Нет
Параметр ReFrames формата                : 4 кадра
Идентификатор кодека                     : 27
Продолжительность                        : 2 ч. 8 м.
Вид битрейта                             : Постоянный
Битрейт                                  : 6816 Кбит/сек
Ширина                                   : 1920 пикселей
Высота                                   : 1080 пикселей
Соотношение сторон                       : 16:9
Частота кадров                           : 25,000 кадров/сек
Стандарт вещания                         : PAL
Цветовое пространство                    : YUV
Субдискретизация насыщенности            : 4:2:0
Битовая глубина                          : 8 бит
Тип развёртки                            : Чересстрочная
Порядок развёртки                        : Верхнее поле первое
Бит/(Пиксели*Кадры)                      : 0.131
Размер потока                            : 5,99 Гбайт (92%)
Основные цвета                           : BT.709
Характеристики трансфера                 : BT.709
Коэффициенты матрицы                     : BT.709

Аудио
Идентификатор                            : 1002 (0x3EA)
Идентификатор меню                       : 1 (0x1)
Формат                                   : AC-3
Формат/Информация                        : Audio Coding 3
Расширение режима                        : CM (complete main)
Параметр Endianness формата              : Big
Идентификатор кодека                     : 6
Продолжительность                        : 2 ч. 8 м.
Вид битрейта                             : Постоянный
Битрейт                                  : 192 Кбит/сек
Каналы                                   : 2 канала
Расположение каналов                     : Front: L R
Частота                                  : 48,0 КГц
Битовая глубина                          : 16 бит
Метод сжатия                             : С потерями
Задержка видео                           : 96 мс.
Размер потока                            : 176 Мбайт (3%)
Язык                                     : std
Язык, дополнительно                      : Clean effects
Скриншоты:


Время раздачи: Пн-Пт с 18:00 до 22:00
[NNM-Club.me]_Valeriya_Serpantin_HD.ts.torrent
 Торрент: Платиновая раздача  Зарегистрирован
 
Примагнититься

Скачать
 Зарегистрирован:   05 Май 2015 10:00:18
 Размер:   6,48 GB  (
 Рейтинг:   2,3 (Голосов: 58)
 Поблагодарили:   54
 Проверка:   Оформление проверено модератором 08 Май 2015 08:58:22
Как cкачать  ·  Как раздать  ·  Правильно оформить  ·  Поднять ратио!  
Загрузка...
Север​ный_Г​уляка​
Стаж: 5 лет 2 мес.
Сообщений: 429
Ratio: 108,3
84.7%
Откуда: СЕВЕР
ussr.gif
Полная версия HDTV - СПАСИБО!!!

_________________
Поддержу Интересные РедкоСидируемые Раздачи - Смотри (список) "Спасибо" (просьбу-ссылку в Личную берлогу - [ЛС]) [НОЧЬ по МСК Предпочтение]
Показать сообщения:   
Начать новую тему   Ответить на тему    Торрент-трекер NNM-Club -> Театр и Музыкальное видео -> Концерты (HD) Часовой пояс: GMT + 3
Страница 1 из 1

День смеха и юмора отмечается 1 апреля. В этот день принято шутить и разыгрывать друзей, коллег по работе, домашних, словом всех, с кем Вам предстоит увидеться в этот праздник – первое апреля. Первоапрельские розыгрыши, приколы на 1 апреля, первоапрельские шутки должны быть веселыми и безобидными. Приколы на 1 апреля, как правило, удаются в том случае, если человек забыл какой сегодня месяц и день, словом, забыл про 1 апреля – день смеха, шуток, день дурака.

Желаем Вам много улыбок и хорошего настроения в этот день!
С Уважением, администрация NNM-Club :)