Интеллигентный торрент-трекер
canvas not supported
Нас вместе: 4 138 503

Кошки / Cats (1998) BDRip [ENG]


 
 
RSS
Начать новую тему   Ответить на тему    Торрент-трекер NNM-Club -> Театр и Музыкальное видео -> Опера, Балет, Мюзиклы
Автор Сообщение
ornellit ®
Стаж: 8 лет 5 мес.
Сообщений: 1747
Ratio: 120,646
Поблагодарили: 93854
100%
ukraine.gif
Кошки / Cats (1998) BDRip
Год выпуска: 1998
Жанр: Мюзикл
Выпущено: Великобритания, США, Really Useful Films

Описание:
КОШКИ Эндрю Ллойда Уэббера - один из самых популярных мюзиклов всех времен, впервые "выстрелил" на сцене Вест-Энда в 1981 году. "Память", одна из самых запоминающихся песен постановки, стала классическим хитом. С тех пор КОШКИ побили все мыслимые рекорды и покорили мир. Звездный актерский состав под предводительством Элейн Пэйдж и сэра Джона Миллса, роскошные визуальные эффекты и глубокое звучание оркестра из 80 музыкантов позволят вам полностью погрузиться в таинственный мир КОШЕК.

Режиссер: Дэвид Мале
Актеры: Джеймс Баррон, Джо Бингхэм, Джейкоб Брент, Кэй Браун, Филлида Краули Смит, Джейсон Гардинер, Джеффри Гаррэтт, Джо Гибб

Продолжительность: 02:00:11
Перевод: Отсутствует
Язык субтитров: Русский
Вид субтитров: Отдельным файлом



Видеокодек: XviD
Битрейт видео: ~1926 Кбит/с
Размер кадра: 720 х 416
Качество видео: BDRip
Аудиокодек: AC3 5.1
Битрейт аудио: 448 Кбит/с
  • Мюзикл написан по мотивам сборника детских стихов Т.С. Элиота «Популярная наука о кошках, написанная старым опоссумом» («Old Possum`s Book of Practical Cats»).
  • В России премьера мюзикла состоялась в Москве 18 марта 2005 года. На премьере присутствовал сам автор мюзикла Эндрю Ллойд Уэббер. Постановку в Москве Уэббер охарактеризовал эпитетом «absolutely fantastic».
  • Премьера мюзикла состоялась 11 мая 1981 года на сцене Нового лондонского театра, а 7 октября 1982 года - состоялась премьера на Бродвее.
Общее
Полное имя : \CATS.1998.BDRip\CATS.1998.BDRip.avi
Формат : AVI
Формат/Информация : Audio Video Interleave
Профиль формата : OpenDML
Размер файла : 2,01 Гбайт
Продолжительность : 2 ч. 0 м.
Общий поток : 2387 Кбит/сек
Программа кодирования : VirtualDubMod 1.5.10.3 | www.virtualdub-fr.org || (build 2550/release)
Библиотека кодирования : VirtualDubMod build 2550/release

Видео
Идентификатор : 0
Формат : MPEG-4 Visual
Профиль формата : Advanced Simple@L5
Параметр BVOP формата : 2
Параметр QPel формата : Нет
Параметр GMC формата : Без точки перехода
Параметр матрицы формата : Default (H.263)
Режим смешивания : Сжатый битовый поток
Идентификатор кодека : XVID
Идентификатор кодека/Подсказка : XviD
Продолжительность : 2 ч. 0 м.
Битрейт : 1926 Кбит/сек
Ширина : 720 пикселей
Высота : 416 пикселей
Соотношение сторон : 1,731
Частота кадров : 23,976 кадра/сек
Цветовое пространство : YUV
Субдискретизация насыщенности : 4:2:0
Битовая глубина : 8 бит
Тип развёртки : Прогрессивная
Метод сжатия : С потерями
Бит/(Пиксели*Кадры) : 0.268
Размер потока : 1,62 Гбайт (81%)
Библиотека кодирования : XviD 64

Аудио
Идентификатор : 1
Формат : AC-3
Формат/Информация : Audio Coding 3
Расширение режима : CM (complete main)
Параметр Endianness формата : Big
Идентификатор кодека : 2000
Продолжительность : 2 ч. 0 м.
Вид битрейта : Постоянный
Битрейт : 448 Кбит/сек
Каналы : 6 каналов
Расположение каналов : Front: L C R, Side: L R, LFE
Частота : 48,0 КГц
Битовая глубина : 16 бит
Метод сжатия : С потерями
Размер потока : 386 Мбайт (19%)
Выравнивание : Разделение по промежуткам
Продолжительность промежутка : 42 мс. (1,00 видеокадр)
Время предзагрузки промежутка : 500 мс.
Скриншоты:



Время раздачи: С 13:00 до 21:00 (до 5 скачавших)
мюзикл "Кошки" на NNM-CLUB.RU
Приятного просмотра!
 Торрент: Платиновая раздача  Зарегистрирован
 
Скачать


Примагнититься
 Зарегистрирован:   28 Сен 2013 18:21:20
 Размер:   2,01 GB  (
 Рейтинг:   4,7 (Голосов: 45)
 Поблагодарили:   246
 Проверка:   Оформление проверено модератором 29 Сен 2013 09:37:27
Как cкачать  ·  Как раздать  ·  Правильно оформить  ·  Поднять ратио!  
vyctorius
 
Стаж: 7 лет 1 мес.
Сообщений: 1509
Ratio: 573,472
Раздал: 44,43 TB
Поблагодарили: 15019
100%
Откуда: чо берется?
pirates.png
Жалко, на Бродвее больше не показывают "Кошек", так хотелось посмотреть вживую.
genira333
Стаж: 4 года 7 мес.
Сообщений: 716
Ratio: 104,851
100%
Откуда: Ukraine
ukraine.gif
Большое спасибо! Посмотрим видео!
delit​ioscu​pcake​
Стаж: 1 год 10 мес.
Сообщений: 10
Ratio: 2,263
45.99%
ukraine.gif
плакал от сцен с бродячей кошкой . и подзаборным театральным котом. 8/10
Bagua
Стаж: 7 лет 4 мес.
Сообщений: 116
Ratio: 1,658
65.56%
Классика! Знаю наизусть весь текст. Жалею, что когда работал в Лондоне проигнорировал предложение сходить на мюзикл. Блин.
Показать сообщения:   
Начать новую тему   Ответить на тему    Торрент-трекер NNM-Club -> Театр и Музыкальное видео -> Опера, Балет, Мюзиклы Часовой пояс: GMT + 3
Страница 1 из 1

День смеха и юмора отмечается 1 апреля. В этот день принято шутить и разыгрывать друзей, коллег по работе, домашних, словом всех, с кем Вам предстоит увидеться в этот праздник – первое апреля. Первоапрельские розыгрыши, приколы на 1 апреля, первоапрельские шутки должны быть веселыми и безобидными. Приколы на 1 апреля, как правило, удаются в том случае, если человек забыл какой сегодня месяц и день, словом, забыл про 1 апреля – день смеха, шуток, день дурака.

Желаем Вам много улыбок и хорошего настроения в этот день!
С Уважением, администрация NNM-Club :)