Интеллигентный торрент-трекер
canvas not supported
Нас вместе: 4 141 109

П.И.Чайковский: "Евгений Онегин" / Tchaikovsky: Eugene Onegin (2013) HDRip


 
 
RSS
Начать новую тему   Ответить на тему    Торрент-трекер NNM-Club -> Театр и Музыкальное видео -> Опера, Балет, Мюзиклы
Автор Сообщение
Календарь ®
Стаж: 8 лет
Сообщений: 1087
Ratio: 23,932
Поблагодарили: 19011
94.76%
П.И.Чайковский: "Евгений Онегин" / Tchaikovsky: Eugene Onegin (2013) HDRip
Оригинальное название: Tchaikovsky: Eugene Onegin
Русское название: П.И.Чайковский: "Евгений Онегин"
Производство: США, Metropolitan Opera
Год выпуска: 2013
Жанр: Опера

Описание фильма:
Сезон 2013-2014 в «Метрополитен Опера» открылся постановкой оперы П.И. Чайковского «Евгений Онегин». Этот спектакль был перенесен в Нью-Йорк из Английской национальной оперы, где постановкой занималась Дебора Уорнер, известный британский режиссер. В Великобритании постановка удостоилась самых теплых критических отзывов. «Спектакль обладает взрывной эмоциональностью и властно притягивает взгляд…» писала британская пресса. За дирижерским пультом Валерий Гергиев. Роль Татьяны исполняет Анна Нетребко, партии Онегина и Ленского - польские певцы Мариуш Квечень и Петр Бечала.

Режиссер: Фиона Шоу, Дебора Уорнер
Солисты:
Елена Заремба (Elena Zaremba) – Ларина, помещица (меццо-сопрано)
Анна Нетребко (Anna Netrebko) – Татьяна, старшая дочь Лариной (сопрано)
Оксана Волкова (Oksana Volkova) – Ольга, младшая дочь Лариной (контральто)
Лариса Дядькова (Larissa Diadkova) – Филиппьевна, няня (меццо-сопрано)
Мариуш Квечень (Mariusz Kwiecien) – Евгений Онегин (баритон)
Пётр Бечала (Piotr Beczala) – Ленский (тенор)
Алексей Тановицкий (Alexei Tanovitsky) – князь Гремин (бас)
Дэвид Кроуфорд (David Crawford) - ротный (бас)
Ричард Бернстайн (Richard Bernstein) – Зарецкий (бас)
Джон Грэхем-Холл (John Graham-Hall) – Трике, француз-гувернер (тенор)

Оркестр : Оркестр театра Метрополитен опера, Нью Йорк (The Metropolitan Opera Orchestra, New York)
Хор : Хор театра Метрополитен опера, Нью Йорк (The Metropolitan Opera Chorus, New York)
Дирижёр : Валерий Гергиев

Продолжительность: 02:43:33
Качество видео: BDRip

Дата мировой премьеры: 2013

Видеокодек: Xvid
Битрейт видео: ~1530 kbps
Размер кадра: 716 x 400
Аудиокодек: AC3 2.0
Битрейт аудио: 256 kbps
General
Complete name : Tchaikovsky.Onegin.2013.BDRip.AC3.2ch.avi
Format : AVI
Format/Info : Audio Video Interleave
Format profile : OpenDML
File size : 2.06 GiB
Duration : 2h 43mn
Overall bit rate : 1 801 Kbps
Writing library : VirtualDub build 32618/release

Video
ID : 0
Format : MPEG-4 Visual
Format profile : Advanced Simple@L5
Format settings, BVOP : 1
Format settings, QPel : Yes
Format settings, GMC : 3 warppoints
Format settings, Matrix : Custom
Codec ID : XVID
Codec ID/Hint : XviD
Duration : 2h 43mn
Bit rate : 1 531 Kbps
Width : 712 pixels
Height : 400 pixels
Display aspect ratio : 16:9
Frame rate : 29.970 fps
Color space : YUV
Chroma subsampling : 4:2:0
Bit depth : 8 bits
Scan type : Progressive
Compression mode : Lossy
Bits/(Pixel*Frame) : 0.179
Stream size : 1.75 GiB (85%)
Writing library : XviD 1.2.1 (UTC 2008-12-04)

Audio
ID : 1
Format : AC-3
Format/Info : Audio Coding 3
Mode extension : CM (complete main)
Format settings, Endianness : Big
Codec ID : 2000
Duration : 2h 43mn
Bit rate mode : Constant
Bit rate : 256 Kbps
Channel(s) : 2 channels
Channel positions : Front: L R
Sampling rate : 44.1 KHz
Bit depth : 16 bits
Compression mode : Lossy
Stream size : 299 MiB (14%)
Alignment : Split accross interleaves
Interleave, duration : 35 ms (1.04 video frame)
Interleave, preload duration : 522 ms
Скриншоты:




Время раздачи: с 09:00 до 20:00
 Торрент: Платиновая раздача  Зарегистрирован
 
Скачать


Примагнититься
 Зарегистрирован:   07 Май 2014 18:26:57
 Размер:   2,06 GB  (
 Рейтинг:   4,6 (Голосов: 22)
 Поблагодарили:   102
 Проверка:   Оформление проверено модератором 07 Май 2014 20:29:15
Как cкачать  ·  Как раздать  ·  Правильно оформить  ·  Поднять ратио!  
Skaba​llano​vich​
Стаж: 6 лет 11 мес.
Сообщений: 27
Ratio: 6,842
Поблагодарили: 276
100%
switzerland.gif
Звук ужасный!
wiLDer
Стаж: 8 лет 7 мес.
Сообщений: 9
Ratio: 4,603
1.28%
russia.gif
П.И.Чайковский: "Евгений Онегин" США, Metropolitan Opera- мечта! (хотя-бы в blue ray)
Показать сообщения:   
Начать новую тему   Ответить на тему    Торрент-трекер NNM-Club -> Театр и Музыкальное видео -> Опера, Балет, Мюзиклы Часовой пояс: GMT + 3
Страница 1 из 1

День смеха и юмора отмечается 1 апреля. В этот день принято шутить и разыгрывать друзей, коллег по работе, домашних, словом всех, с кем Вам предстоит увидеться в этот праздник – первое апреля. Первоапрельские розыгрыши, приколы на 1 апреля, первоапрельские шутки должны быть веселыми и безобидными. Приколы на 1 апреля, как правило, удаются в том случае, если человек забыл какой сегодня месяц и день, словом, забыл про 1 апреля – день смеха, шуток, день дурака.

Желаем Вам много улыбок и хорошего настроения в этот день!
С Уважением, администрация NNM-Club :)