Интеллигентный торрент-трекер
canvas not supported
Нас вместе: 4 265 372

Вячеслав Бутусов (Ю-Питер) - 20 Альбомов (1997-2013) Дискография [FLAC|Lossless]<Rock>


 
 
RSS
Начать новую тему   Ответить на тему    Торрент-трекер NNM-Club -> Rock, Alternative, Punk, Metal -> Русский Рок (Lossless)
Автор Сообщение
Vadimка ®
Модератор Музыки
RG Музыки
 
Стаж: 6 лет 2 мес.
Сообщений: 5181
Ratio: 439,818
Поблагодарили: 244600
100%
nnm-club.gif
Вячеслав Бутусов (Ю-Питер) - Дискография 16 Альбомов 4 WEB (1997-2013) (25 CD)
Год: 1997-2013
Жанр: Rock
Продолжительность: 17:01:32

Страна-производитель дисков: Россия, Austria
Источник (релизер): bruk67
Наличие сканов в содержимом раздачи: Да, 600 dpi, JPG

Кодек: FLAC, (image+.cue)
Битрейт: Lossless

Трек лист:
Страна-производитель диска: Россия
Год издания диска: 1997
Издатель (лейбл): NP records
Номер по каталогу: NP-97056
Продолжительность: 00:41:01

Трек лист:
01. Мечта
02. Меткий стрелок
03. Карандаш по стеклу
04. Посвящение 'N'
05. Защити
06. Окна друзей
07. Заповедник духа
08. Завтра будет солнце
09. Аэропорт (Bonus)
10. Птицелов (Bonus)
11. Золотое кольцо (Bonus)
12. Rock-N-Roll под облаками (Bonus)
13. Название в прошлом (Bonus)
Код:

Exact Audio Copy V1.0 beta 3 from 29. August 2011

EAC extraction logfile from 13. July 2012, 22:46

Вячеслав Бутусов & Co / Мост

Used drive  : PLEXTOR DVDR   PX-760A   Adapter: 4  ID: 2

Read mode               : Secure
Utilize accurate stream : Yes
Defeat audio cache      : Yes
Make use of C2 pointers : No

Read offset correction                      : 30
Overread into Lead-In and Lead-Out          : Yes
Fill up missing offset samples with silence : Yes
Delete leading and trailing silent blocks   : No
Null samples used in CRC calculations       : Yes
Used interface                              : Installed external ASPI interface

Used output format : Internal WAV Routines
Sample format      : 44.100 Hz; 16 Bit; Stereo

TOC of the extracted CD

     Track |   Start  |  Length  | Start sector | End sector
    ---------------------------------------------------------
        1  |  0:00.00 |  3:06.62 |         0    |    14011
        2  |  3:06.62 |  3:15.20 |     14012    |    28656
        3  |  6:22.07 |  2:45.45 |     28657    |    41076
        4  |  9:07.52 |  5:51.55 |     41077    |    67456
        5  | 14:59.32 |  3:38.48 |     67457    |    83854
        6  | 18:38.05 |  2:54.47 |     83855    |    96951
        7  | 21:32.52 |  2:45.40 |     96952    |   109366
        8  | 24:18.17 |  2:42.18 |    109367    |   121534
        9  | 27:00.35 |  1:43.00 |    121535    |   129259
       10  | 28:43.35 |  2:48.12 |    129260    |   141871
       11  | 31:31.47 |  2:15.70 |    141872    |   152066
       12  | 33:47.42 |  2:34.50 |    152067    |   163666
       13  | 36:22.17 |  4:39.05 |    163667    |   184596

Range status and errors

Selected range

     Filename M:\FLAC (bruk67)\MP3\Вячеслав Бутусов (Ю-Питер) FLAC\1997 - Мост\Вячеслав Бутусов & Co - Мост.wav

     Peak level 100.0 %
     Extraction speed 6.9 X
     Range quality 100.0 %
     Test CRC A237A0FA
     Copy CRC A237A0FA
     Copy OK

No errors occurred

AccurateRip summary

Track  1  not present in database
Track  2  not present in database
Track  3  not present in database
Track  4  not present in database
Track  5  not present in database
Track  6  not present in database
Track  7  not present in database
Track  8  not present in database
Track  9  not present in database
Track 10  not present in database
Track 11  not present in database
Track 12  not present in database
Track 13  not present in database

None of the tracks are present in the AccurateRip database

End of status report

---- CUETools DB Plugin V2.1.3

[CTDB TOCID: OoJPvoBTWoQmJkKJwSFK7lTo5Ho-] disk not present in database, Submit result: OoJPvoBTWoQmJkKJwSFK7lTo5Ho- has been uploaded

==== Log checksum 6BE320A10B99DAE3E968DA8EFD0E5958193BC924067C34083D7CFE4CF4923972 ====
Код:

DON'T MODIFY THIS FILE

-----------------------

PERFORMER: auCDtect Task Manager, ver. 1.6.0 RC1 build 1.6.0.1
Copyright (c) 2008-2010 y-soft. All rights reserved
http://y-soft.org

ANALYZER: auCDtect: CD records authenticity detector, version 0.8.2
Copyright (c) 2004 Oleg Berngardt. All rights reserved.
Copyright (c) 2004 Alexander Djourik. All rights reserved.

FILE: Вячеслав Бутусов & Co - Мост.flac
  Size: 267327115 Hash: EBD7ED1B5E29E8A16218D4F6C259E865 Accuracy: -m0
  Conclusion: CDDA 100%
  Signature: 533B047476C3FB0002708FF065C0E00AFFD44B93
Страна-производитель диска: Россия
Год издания диска: 2000
Издатель (лейбл): NP records
Номер по каталогу: NP-20056
Продолжительность: 00:40:40

Трек лист:

01. Мечта
02. Меткий стрелок
03. Карандаш по стеклу
04. Посвящение 'N'
05. Защити
06. Окна друзей
07. Заповедник духа
08. Завтра будет солнце
09. Аэропорт (Bonus)
10. Птицелов (Bonus)
11. Золотое кольцо (Bonus)
12. Rock-N-Roll под облаками (Bonus)
13. Название в прошлом... (Bonus)
Код:

Exact Audio Copy V1.0 beta 3 from 29. August 2011

EAC extraction logfile from 27. July 2012, 1:10

Вячеслав Бутусов & Co / Мост

Used drive  : PLEXTOR DVDR   PX-760A   Adapter: 4  ID: 2

Read mode               : Secure
Utilize accurate stream : Yes
Defeat audio cache      : Yes
Make use of C2 pointers : No

Read offset correction                      : 30
Overread into Lead-In and Lead-Out          : Yes
Fill up missing offset samples with silence : Yes
Delete leading and trailing silent blocks   : No
Null samples used in CRC calculations       : Yes
Used interface                              : Installed external ASPI interface

Used output format : Internal WAV Routines
Sample format      : 44.100 Hz; 16 Bit; Stereo

TOC of the extracted CD

     Track |   Start  |  Length  | Start sector | End sector
    ---------------------------------------------------------
        1  |  0:00.00 |  3:04.69 |         0    |    13868
        2  |  3:04.69 |  3:13.27 |     13869    |    28370
        3  |  6:18.21 |  2:43.67 |     28371    |    40662
        4  |  9:02.13 |  5:49.57 |     40663    |    66894
        5  | 14:51.70 |  3:36.59 |     66895    |    83153
        6  | 18:28.54 |  2:52.49 |     83154    |    96102
        7  | 21:21.28 |  2:43.42 |     96103    |   108369
        8  | 24:04.70 |  2:40.20 |    108370    |   120389
        9  | 26:45.15 |  1:41.16 |    120390    |   127980
       10  | 28:26.31 |  2:46.14 |    127981    |   140444
       11  | 31:12.45 |  2:14.06 |    140445    |   150500
       12  | 33:26.51 |  2:34.36 |    150501    |   162086
       13  | 36:01.12 |  4:39.03 |    162087    |   183014

Range status and errors

Selected range

     Filename M:\FLAC (bruk67)\MP3\Вячеслав Бутусов (Ю-Питер) FLAC\1997 - Мост (Переиздание 2000)\Вячеслав Бутусов & Co - Мост.wav

     Peak level 100.0 %
     Extraction speed 1.8 X
     Range quality 99.9 %
     Test CRC E34A250D
     Copy CRC E34A250D
     Copy OK

No errors occurred

AccurateRip summary

Track  1  cannot be verified as accurate (confidence 2)  [E1DE8660], AccurateRip returned [935ABEC2]  (AR v2)
Track  2  cannot be verified as accurate (confidence 2)  [C0F5A8A1], AccurateRip returned [416C24FA]  (AR v2)
Track  3  cannot be verified as accurate (confidence 2)  [6163F506], AccurateRip returned [D179A132]  (AR v2)
Track  4  cannot be verified as accurate (confidence 2)  [E609D204], AccurateRip returned [A4CDBDEB]  (AR v2)
Track  5  cannot be verified as accurate (confidence 2)  [74E13E66], AccurateRip returned [9F601E24]  (AR v2)
Track  6  cannot be verified as accurate (confidence 2)  [C10F91EE], AccurateRip returned [E9B55AAA]  (AR v2)
Track  7  cannot be verified as accurate (confidence 2)  [0602531C], AccurateRip returned [14CE9880]  (AR v2)
Track  8  cannot be verified as accurate (confidence 2)  [E5D218A8], AccurateRip returned [1A36DA93]  (AR v2)
Track  9  cannot be verified as accurate (confidence 2)  [2E2A386B], AccurateRip returned [F0514C4F]  (AR v2)
Track 10  cannot be verified as accurate (confidence 2)  [F2B143B7], AccurateRip returned [409AABC5]  (AR v2)
Track 11  cannot be verified as accurate (confidence 2)  [1C6E5A7E], AccurateRip returned [D130343D]  (AR v2)
Track 12  cannot be verified as accurate (confidence 2)  [E9A80D4E], AccurateRip returned [FE1A5D7F]  (AR v2)
Track 13  cannot be verified as accurate (confidence 2)  [D38C1A0C], AccurateRip returned [73CB25E4]  (AR v2)

No tracks could be verified as accurate
You may have a different pressing from the one(s) in the database

End of status report

---- CUETools DB Plugin V2.1.3

[CTDB TOCID: kdTO20ruhSWiOuy_w7T7aJxbKlE-] found, Submit result: kdTO20ruhSWiOuy_w7T7aJxbKlE- has been confirmed
[bbc89a6a] (2/2) Accurately ripped

==== Log checksum C9B4AF7731E71AEE6FF554E74A05D32AB97FB55339A35AF950BA4CF91A55FB8F ====
Код:

DON'T MODIFY THIS FILE

-----------------------

PERFORMER: auCDtect Task Manager, ver. 1.6.0 RC1 build 1.6.0.1
Copyright (c) 2008-2010 y-soft. All rights reserved
http://y-soft.org

ANALYZER: auCDtect: CD records authenticity detector, version 0.8.2
Copyright (c) 2004 Oleg Berngardt. All rights reserved.
Copyright (c) 2004 Alexander Djourik. All rights reserved.

FILE: Вячеслав Бутусов & Co - Мост.flac
  Size: 267132943 Hash: 4F4ADC0224B0811367EC9C87412AF5D3 Accuracy: -m0
  Conclusion: CDDA 100%
  Signature: BE74B91180026958BB5D06254D2E400A5B49D657
Страна-производитель диска: Austria
Год издания диска: 1997
Издатель (лейбл): FM project/RDM Co. Ltd
Номер по каталогу: CDRDM 707181
Продолжительность: 00:43:46

Трек лист:

01. Дума об Уйме Студиозуса Вагнера
02. Дух Назойливый
03. Швайнехунде
04. Квазифольклорная зомбическая
05. В генеральный час уборки
06. Пещерный гимн Пернатого Змея
07. Моление о тишине Золотой рыбки
08. In Vitro
09. Вассар и Масса
10. Заговор против херочувствия
11. История Кентавра и Всадницы
12. Чёрный пудель
13. Письмо Махатме
Код:

Exact Audio Copy V1.0 beta 3 from 29. August 2011

EAC extraction logfile from 13. July 2012, 17:18

Вячеслав Бутусов & Георгий Каспарян / НеЗаконНоРожденный альхимик доктор Фауст пернатый змей

Used drive  : PLEXTOR DVDR   PX-760A   Adapter: 4  ID: 2

Read mode               : Secure
Utilize accurate stream : Yes
Defeat audio cache      : Yes
Make use of C2 pointers : No

Read offset correction                      : 30
Overread into Lead-In and Lead-Out          : Yes
Fill up missing offset samples with silence : Yes
Delete leading and trailing silent blocks   : No
Null samples used in CRC calculations       : Yes
Used interface                              : Installed external ASPI interface

Used output format : Internal WAV Routines
Sample format      : 44.100 Hz; 16 Bit; Stereo

TOC of the extracted CD

     Track |   Start  |  Length  | Start sector | End sector
    ---------------------------------------------------------
        1  |  0:00.10 |  2:08.66 |        10    |     9675
        2  |  2:09.01 |  3:12.69 |      9676    |    24144
        3  |  5:21.70 |  3:20.50 |     24145    |    39194
        4  |  8:42.45 |  4:36.02 |     39195    |    59896
        5  | 13:18.47 |  3:07.15 |     59897    |    73936
        6  | 16:25.62 |  4:25.45 |     73937    |    93856
        7  | 20:51.32 |  1:33.05 |     93857    |   100836
        8  | 22:24.37 |  2:22.29 |    100837    |   111515
        9  | 24:46.66 |  3:24.06 |    111516    |   126821
       10  | 28:10.72 |  3:19.38 |    126822    |   141784
       11  | 31:30.35 |  2:02.42 |    141785    |   150976
       12  | 33:33.02 |  3:12.64 |    150977    |   165440
       13  | 36:45.66 |  6:59.59 |    165441    |   196924

Range status and errors

Selected range

     Filename M:\FLAC (bruk67)\MP3\Вячеслав Бутусов (Ю-Питер) FLAC\1997 - НеЗаконНоРожденный альхимик доктор Фауст пернатый змей (Подарочное издание)\Вячеслав Бутусов & Георгий Каспарян - НеЗаконНоРожденный альхимик доктор Фауст пернатый змей.wav

     Peak level 97.7 %
     Extraction speed 6.0 X
     Range quality 100.0 %
     Test CRC 9631EAC2
     Copy CRC 9631EAC2
     Copy OK

No errors occurred

AccurateRip summary

Track  1  cannot be verified as accurate (confidence 1)  [F8B69919], AccurateRip returned [F22FB281]  (AR v2)
Track  2  cannot be verified as accurate (confidence 1)  [B9BC966B], AccurateRip returned [72720BD7]  (AR v2)
Track  3  cannot be verified as accurate (confidence 1)  [3EFD69A0], AccurateRip returned [830F3CB6]  (AR v2)
Track  4  cannot be verified as accurate (confidence 1)  [356732B4], AccurateRip returned [8B785CBF]  (AR v2)
Track  5  cannot be verified as accurate (confidence 1)  [3664E3EF], AccurateRip returned [1FA1CA9C]  (AR v2)
Track  6  cannot be verified as accurate (confidence 1)  [457B6B11], AccurateRip returned [860E2C87]  (AR v2)
Track  7  cannot be verified as accurate (confidence 1)  [4A9CD087], AccurateRip returned [1D0BA7E1]  (AR v2)
Track  8  cannot be verified as accurate (confidence 1)  [5A620264], AccurateRip returned [9EC1086A]  (AR v2)
Track  9  cannot be verified as accurate (confidence 1)  [2C0DE0AF], AccurateRip returned [54380209]  (AR v2)
Track 10  cannot be verified as accurate (confidence 1)  [CD09CF76], AccurateRip returned [48FF5B31]  (AR v2)
Track 11  cannot be verified as accurate (confidence 1)  [BDA9BE58], AccurateRip returned [F42E1521]  (AR v2)
Track 12  cannot be verified as accurate (confidence 1)  [0B005458], AccurateRip returned [DF8ABFB9]  (AR v2)
Track 13  cannot be verified as accurate (confidence 1)  [6FCC1EC8], AccurateRip returned [A1A6FCC2]  (AR v2)

No tracks could be verified as accurate
You may have a different pressing from the one(s) in the database

End of status report

---- CUETools DB Plugin V2.1.3

[CTDB TOCID: fqlW8CdgUXAXOUjvpD8JSFzPLSE-] disk not present in database, Submit result: discs with pregaps not supported in this protocol version

==== Log checksum 77E22B3175D31DFB5442EE6835B19C944E5E99C5710CD69E336B1001C71A8F1B ====
Код:

DON'T MODIFY THIS FILE

-----------------------

PERFORMER: auCDtect Task Manager, ver. 1.6.0 RC1 build 1.6.0.1
Copyright (c) 2008-2010 y-soft. All rights reserved
http://y-soft.org

ANALYZER: auCDtect: CD records authenticity detector, version 0.8.2
Copyright (c) 2004 Oleg Berngardt. All rights reserved.
Copyright (c) 2004 Alexander Djourik. All rights reserved.

FILE: Вячеслав Бутусов & Георгий Каспарян - НеЗаконНоРожденный альхимик доктор Фауст пернатый змей.flac
  Size: 276694668 Hash: 3177245DA78DA7EF8D43EE3C6E60A56A Accuracy: -m0
  Conclusion: CDDA 99%
  Signature: BB1E76320955A488C4EE051E47BB6DD199DB6EA0
Страна-производитель диска: Austria
Год издания диска: 1998
Издатель (лейбл): Dana music
Номер по каталогу: AXCD3-0059
Продолжительность: 00:41:49

Трек лист:

01. Звёздочка
02. Вертолёт
03. Птица-паровоз
04. Песня о песне
05. Скважина
06. Звезда поэта
07. Берег
08. Три поросера
09. Бибигон-2
10. Венера
11. В.С.О.С.
12. Конь
Код:

Exact Audio Copy V1.0 beta 3 from 29. August 2011

EAC extraction logfile from 13. July 2012, 14:02

Вячеслав Бутусов / Овалы

Used drive  : PLEXTOR DVDR   PX-760A   Adapter: 4  ID: 2

Read mode               : Secure
Utilize accurate stream : Yes
Defeat audio cache      : Yes
Make use of C2 pointers : No

Read offset correction                      : 30
Overread into Lead-In and Lead-Out          : Yes
Fill up missing offset samples with silence : Yes
Delete leading and trailing silent blocks   : No
Null samples used in CRC calculations       : Yes
Used interface                              : Installed external ASPI interface

Used output format : Internal WAV Routines
Sample format      : 44.100 Hz; 16 Bit; Stereo

TOC of the extracted CD

     Track |   Start  |  Length  | Start sector | End sector
    ---------------------------------------------------------
        1  |  0:00.55 |  4:14.62 |        55    |    19166
        2  |  4:15.42 |  3:49.36 |     19167    |    36377
        3  |  8:05.03 |  3:02.36 |     36378    |    50063
        4  | 11:07.39 |  2:02.23 |     50064    |    59236
        5  | 13:09.62 |  3:49.52 |     59237    |    76463
        6  | 16:59.39 |  4:05.46 |     76464    |    94884
        7  | 21:05.10 |  4:05.60 |     94885    |   113319
        8  | 25:10.70 |  3:53.03 |    113320    |   130797
        9  | 29:03.73 |  3:06.09 |    130798    |   144756
       10  | 32:10.07 |  2:11.55 |    144757    |   154636
       11  | 34:21.62 |  2:58.37 |    154637    |   168023
       12  | 37:20.24 |  4:28.18 |    168024    |   188141

Range status and errors

Selected range

     Filename M:\FLAC (bruk67)\MP3\Вячеслав Бутусов (Ю-Питер) FLAC\1998 - Овалы\Вячеслав Бутусов - Овалы.wav

     Peak level 98.8 %
     Extraction speed 6.7 X
     Range quality 99.9 %
     Test CRC 0E1F8C93
     Copy CRC 0E1F8C93
     Copy OK

No errors occurred

AccurateRip summary

Track  1  accurately ripped (confidence 2)  [2489D17E]  (AR v2)
Track  2  accurately ripped (confidence 2)  [1A529F08]  (AR v2)
Track  3  accurately ripped (confidence 2)  [6C5731C3]  (AR v2)
Track  4  accurately ripped (confidence 2)  [3CD1FADB]  (AR v2)
Track  5  accurately ripped (confidence 2)  [3B0AE254]  (AR v2)
Track  6  accurately ripped (confidence 2)  [9E45B5F6]  (AR v2)
Track  7  accurately ripped (confidence 2)  [D85F1178]  (AR v2)
Track  8  accurately ripped (confidence 2)  [2DA41307]  (AR v2)
Track  9  accurately ripped (confidence 2)  [FAE240F4]  (AR v2)
Track 10  accurately ripped (confidence 2)  [E3E2FDC1]  (AR v2)
Track 11  accurately ripped (confidence 2)  [F5D0FB6B]  (AR v2)
Track 12  accurately ripped (confidence 2)  [2F0ACC80]  (AR v2)

All tracks accurately ripped

End of status report

---- CUETools DB Plugin V2.1.3

[CTDB TOCID: G9KxhT26jI_xFoEfuoKdb6jiojw-] disk not present in database, Submit result: discs with pregaps not supported in this protocol version

==== Log checksum AAA022B2BCF3D371EE83720E9A07B98474257CDDC4BAE0E21EF09AE589206561 ====
Код:

DON'T MODIFY THIS FILE

-----------------------

PERFORMER: auCDtect Task Manager, ver. 1.6.0 RC1 build 1.6.0.1
Copyright (c) 2008-2010 y-soft. All rights reserved
http://y-soft.org

ANALYZER: auCDtect: CD records authenticity detector, version 0.8.2
Copyright (c) 2004 Oleg Berngardt. All rights reserved.
Copyright (c) 2004 Alexander Djourik. All rights reserved.

FILE: Вячеслав Бутусов - Овалы.flac
  Size: 309333715 Hash: 7827AF3E29EF5D792ADE1531A4117B4B Accuracy: -m0
  Conclusion: CDDA 100%
  Signature: 87095B660D1E499DF5C551803B97B36F37A595C8
Страна-производитель диска: Россия
Год издания диска: 2000
Издатель (лейбл): Никитин
Номер по каталогу: HH-08CD/00
Продолжительность: 00:23:31

Трек лист:

01. Настасья
02. Том
03. Гибралтар-Лабрадор
04. Настасья (Версия)
05. Гибралтар-Лабрадор (Ремикс)
Код:

Отчёт EAC об извлечении, выполненном 18. февраля 2006, 9:24 для диска:
Бутусов и Deadушки / Настасья

Дисковод: ASUS    DVD-E616P   Adapter: 0  ID: 1
Режим чтения: Точный (C2: нет, Точный поток: да, Отключение кэша: да)
Коррекция смещения при чтении: 102
Экстрачтение областей Lead-in и Lead-out : Нет

Выходной формат: C:\Program Files\Monkey's Audio\MAC.exe   (Кодер Monkey's Audio (без потерь))
                     Extra High Lossless Compression

Другие параметры:
    Заполнение пропущенных сэмплов тишиной : Да
    Удаление блоков с тишиной в начале и конце : Нет
    Установленный внешний ASPI-интерфейс

Статус диапазона и ошибки
Выбранный диапазон
     Имя файла C:\Documents and Settings\Godness4\Мои документы\Моя музыка\CDImage.wav

     Пиковый уровень 100.0 %
     Качество диапазона 100.0 %
     CRC ADB9FAE9
     Копирование... OK

Ошибок не произошло

Конец отчёта
Код:

DON'T MODIFY THIS FILE

-----------------------

PERFORMER: auCDtect Task Manager, ver. 1.6.0 RC1 build 1.6.0.1
Copyright (c) 2008-2010 y-soft. All rights reserved
http://y-soft.org

ANALYZER: auCDtect: CD records authenticity detector, version 0.8.2
Copyright (c) 2004 Oleg Berngardt. All rights reserved.
Copyright (c) 2004 Alexander Djourik. All rights reserved.

FILE: Вячеслав Бутусов и Deadушки - Настасья.flac
  Size: 153401871 Hash: 407DF8B45AA8F21916E9A02E4E657A74 Accuracy: -m0
  Conclusion: CDDA 100%
  Signature: 36D1C55834C8CA24859DA99E50BBE1261FA80123
Страна-производитель диска: Россия
Год издания диска: 2000
Издатель (лейбл): Никитин
Номер по каталогу: НН-17CD/01
Продолжительность: 00:51:39

Трек лист:

01. Десять шагов
02. Том ждёт
03. Кошка, чашка, муха и лапоть
04. Триллипут
05. Моя Звезда
06. Вот тогда любовь моя
07. Настасья
08. Патри-парти
09. Запасные сны
10. Элизобарра-Торр
Код:

Exact Audio Copy V1.0 beta 3 from 29. August 2011

EAC extraction logfile from 14. July 2012, 1:52

Вячеслав Бутусов & Deadушки / Эллизобарра-Торр

Used drive  : PLEXTOR DVDR   PX-760A   Adapter: 4  ID: 2

Read mode               : Secure
Utilize accurate stream : Yes
Defeat audio cache      : Yes
Make use of C2 pointers : No

Read offset correction                      : 30
Overread into Lead-In and Lead-Out          : Yes
Fill up missing offset samples with silence : Yes
Delete leading and trailing silent blocks   : No
Null samples used in CRC calculations       : Yes
Used interface                              : Installed external ASPI interface

Used output format : Internal WAV Routines
Sample format      : 44.100 Hz; 16 Bit; Stereo

TOC of the extracted CD

     Track |   Start  |  Length  | Start sector | End sector
    ---------------------------------------------------------
        1  |  0:00.00 |  7:15.20 |         0    |    32644
        2  |  7:15.20 |  3:51.19 |     32645    |    49988
        3  | 11:06.39 |  4:39.46 |     49989    |    70959
        4  | 15:46.10 |  4:32.16 |     70960    |    91375
        5  | 20:18.26 |  5:12.08 |     91376    |   114783
        6  | 25:30.34 |  5:29.68 |    114784    |   139526
        7  | 31:00.27 |  5:38.03 |    139527    |   164879
        8  | 36:38.30 |  4:57.48 |    164880    |   187202
        9  | 41:36.03 |  5:17.71 |    187203    |   211048
       10  | 46:53.74 |  4:44.66 |    211049    |   232414

Range status and errors

Selected range

     Filename M:\FLAC (bruk67)\MP3\Вячеслав Бутусов (Ю-Питер) FLAC\2000 - Эллизобарра-Торр\Вячеслав Бутусов & Deadушки - Эллизобарра-Торр.wav

     Peak level 100.0 %
     Extraction speed 1.9 X
     Range quality 99.9 %
     Test CRC BBFBABD3
     Copy CRC BBFBABD3
     Copy OK

No errors occurred

AccurateRip summary

Track  1  accurately ripped (confidence 6)  [9D072C76]  (AR v1)
Track  2  accurately ripped (confidence 7)  [963F58A1]  (AR v1)
Track  3  accurately ripped (confidence 7)  [019DCF98]  (AR v1)
Track  4  accurately ripped (confidence 7)  [9D5A6130]  (AR v1)
Track  5  accurately ripped (confidence 7)  [10D3A260]  (AR v1)
Track  6  accurately ripped (confidence 7)  [9D643D53]  (AR v1)
Track  7  accurately ripped (confidence 7)  [63F5CBA4]  (AR v1)
Track  8  accurately ripped (confidence 7)  [341E4F5E]  (AR v1)
Track  9  accurately ripped (confidence 7)  [48E23BC8]  (AR v1)
Track 10  accurately ripped (confidence 7)  [F9B71FE2]  (AR v1)

All tracks accurately ripped

End of status report

---- CUETools DB Plugin V2.1.3

[CTDB TOCID: UuBzY4nuPpM40CGHCLbSKXZ.UXY-] found, Submit result: UuBzY4nuPpM40CGHCLbSKXZ.UXY- has been confirmed
[fb53f4ca] (1/4) No match
[bfd0ac2a] (2/4) Accurately ripped
[99ae7cd4] (1/4) No match

==== Log checksum 82242730F88F03B0AE0391353E4BE75755583DF19558C5568342D4C5F7059180 ====
Код:

DON'T MODIFY THIS FILE

-----------------------

PERFORMER: auCDtect Task Manager, ver. 1.6.0 RC1 build 1.6.0.1
Copyright (c) 2008-2010 y-soft. All rights reserved
http://y-soft.org

ANALYZER: auCDtect: CD records authenticity detector, version 0.8.2
Copyright (c) 2004 Oleg Berngardt. All rights reserved.
Copyright (c) 2004 Alexander Djourik. All rights reserved.

FILE: Вячеслав Бутусов & Deadушки - Эллизобарра-Торр.flac
  Size: 307879185 Hash: 63D77A53E4BAB25D24E63E878518D9B8 Accuracy: -m0
  Conclusion: CDDA 99%
  Signature: 2F7F5BEDAC38720D5C16ED49237BCD68C43D4663
Страна-производитель диска: Россия
Год издания диска: 2001
Издатель (лейбл): Рашен Хит
Номер по каталогу: RH027-2001 / RZ024
Продолжительность: 00:54:53

Трек лист:

01. Intra
02. Тихие игры
03. На берегу безымянной реки
04. Все кто нёс
05. Синоптики
06. К Элоизе
07. Берег
08. Песня о песне
09. Звёздочка
10. Гибралтар
11. Настасья
12. Моя звезда
13. Прощальное письмо
14. Синоптики II
15. Праздник общей беды
16. Хлоп-хлоп
17. One More Kiss
18. Kontra
Код:

Exact Audio Copy V1.0 beta 3 from 29. August 2011

EAC extraction logfile from 14. July 2012, 2:31

Вячеслав Бутусов / Тихие игры

Used drive  : PLEXTOR DVDR   PX-760A   Adapter: 4  ID: 2

Read mode               : Secure
Utilize accurate stream : Yes
Defeat audio cache      : Yes
Make use of C2 pointers : No

Read offset correction                      : 30
Overread into Lead-In and Lead-Out          : Yes
Fill up missing offset samples with silence : Yes
Delete leading and trailing silent blocks   : No
Null samples used in CRC calculations       : Yes
Used interface                              : Installed external ASPI interface

Used output format : Internal WAV Routines
Sample format      : 44.100 Hz; 16 Bit; Stereo

TOC of the extracted CD

     Track |   Start  |  Length  | Start sector | End sector
    ---------------------------------------------------------
        1  |  0:00.00 |  1:32.12 |         0    |     6911
        2  |  1:32.12 |  3:01.23 |      6912    |    20509
        3  |  4:33.35 |  3:09.24 |     20510    |    34708
        4  |  7:42.59 |  2:05.31 |     34709    |    44114
        5  |  9:48.15 |  4:05.31 |     44115    |    62520
        6  | 13:53.46 |  4:06.27 |     62521    |    80997
        7  | 17:59.73 |  4:06.73 |     80998    |    99520
        8  | 22:06.71 |  1:53.50 |     99521    |   108045
        9  | 24:00.46 |  3:52.30 |    108046    |   125475
       10  | 27:53.01 |  2:04.41 |    125476    |   134816
       11  | 29:57.42 |  2:41.64 |    134817    |   146955
       12  | 32:39.31 |  4:22.24 |    146956    |   166629
       13  | 37:01.55 |  3:41.41 |    166630    |   183245
       14  | 40:43.21 |  4:11.12 |    183246    |   202082
       15  | 44:54.33 |  2:50.01 |    202083    |   214833
       16  | 47:44.34 |  4:04.35 |    214834    |   233168
       17  | 51:48.69 |  1:31.01 |    233169    |   239994
       18  | 53:19.70 |  1:33.33 |    239995    |   247002

Range status and errors

Selected range

     Filename M:\FLAC (bruk67)\MP3\Вячеслав Бутусов (Ю-Питер) FLAC\2001 - Тихие игры\Вячеслав Бутусов - Тихие игры.wav

     Peak level 100.0 %
     Extraction speed 7.5 X
     Range quality 100.0 %
     Test CRC FF48FC0F
     Copy CRC FF48FC0F
     Copy OK

No errors occurred

AccurateRip summary

Track  1  accurately ripped (confidence 3)  [019024FF]  (AR v1)
Track  2  accurately ripped (confidence 3)  [B8A6F89E]  (AR v1)
Track  3  accurately ripped (confidence 3)  [8605CE21]  (AR v1)
Track  4  accurately ripped (confidence 3)  [38AD1D5C]  (AR v1)
Track  5  accurately ripped (confidence 3)  [AB32CB90]  (AR v1)
Track  6  accurately ripped (confidence 3)  [19823D34]  (AR v1)
Track  7  accurately ripped (confidence 3)  [111F8D32]  (AR v1)
Track  8  accurately ripped (confidence 3)  [34D3103A]  (AR v1)
Track  9  accurately ripped (confidence 3)  [6DEFBDDC]  (AR v1)
Track 10  accurately ripped (confidence 3)  [1458BBC8]  (AR v1)
Track 11  accurately ripped (confidence 3)  [2CB08ADC]  (AR v1)
Track 12  accurately ripped (confidence 3)  [DE6E62ED]  (AR v1)
Track 13  accurately ripped (confidence 3)  [A6830A89]  (AR v1)
Track 14  accurately ripped (confidence 3)  [F07CF477]  (AR v1)
Track 15  accurately ripped (confidence 3)  [05276FC2]  (AR v1)
Track 16  accurately ripped (confidence 3)  [81F3AFFD]  (AR v1)
Track 17  accurately ripped (confidence 3)  [F44C1FD1]  (AR v1)
Track 18  accurately ripped (confidence 3)  [70E96B4B]  (AR v1)

All tracks accurately ripped

End of status report

---- CUETools DB Plugin V2.1.3

[CTDB TOCID: umdTBFsqrK5VFMI03mLVaU1fMho-] found, Submit result: umdTBFsqrK5VFMI03mLVaU1fMho- has been confirmed
[5fff6197] (3/3) Accurately ripped

==== Log checksum 539476260630A9B08C0819549AA28BA8784C8DA2485EC6AA8C58AFC02F7BE832 ====
Код:

DON'T MODIFY THIS FILE

-----------------------

PERFORMER: auCDtect Task Manager, ver. 1.6.0 RC1 build 1.6.0.1
Copyright (c) 2008-2010 y-soft. All rights reserved
http://y-soft.org

ANALYZER: auCDtect: CD records authenticity detector, version 0.8.2
Copyright (c) 2004 Oleg Berngardt. All rights reserved.
Copyright (c) 2004 Alexander Djourik. All rights reserved.

FILE: Вячеслав Бутусов - Тихие игры.flac
  Size: 349172564 Hash: 172F5CFFB9A96AD080D030E345E1218E Accuracy: -m0
  Conclusion: CDDA 100%
  Signature: B30EC0906A881DEDFAF41708123F9D70A5563F68
Страна-производитель диска: Россия
Год издания диска: 2007
Издатель (лейбл): Квадро-Диск
Номер по каталогу: KTL07-230
Продолжительность: 00:43:25

Трек лист:

01. Intra
02. Тихие игры
03. На берегу безымянной реки
04. Все кто нёс
05. Синоптики
06. К Элоизе
07. Гибралтар
08. Настасья
09. Моя звезда
10. Прощальное письмо
11. Синоптики II
12. Хлоп-хлоп
13. Праздник общей беды
14. Kontra
Код:

Exact Audio Copy V1.0 beta 3 from 29. August 2011

EAC extraction logfile from 24. July 2012, 20:58

Вячеслав Бутусов / Тихие игры

Used drive  : PLEXTOR DVDR   PX-760A   Adapter: 4  ID: 2

Read mode               : Secure
Utilize accurate stream : Yes
Defeat audio cache      : Yes
Make use of C2 pointers : No

Read offset correction                      : 30
Overread into Lead-In and Lead-Out          : Yes
Fill up missing offset samples with silence : Yes
Delete leading and trailing silent blocks   : No
Null samples used in CRC calculations       : Yes
Used interface                              : Installed external ASPI interface

Used output format : Internal WAV Routines
Sample format      : 44.100 Hz; 16 Bit; Stereo

TOC of the extracted CD

     Track |   Start  |  Length  | Start sector | End sector
    ---------------------------------------------------------
        1  |  0:00.00 |  1:32.08 |         0    |     6907
        2  |  1:32.08 |  3:01.16 |      6908    |    20498
        3  |  4:33.24 |  3:09.16 |     20499    |    34689
        4  |  7:42.40 |  2:05.24 |     34690    |    44088
        5  |  9:47.64 |  4:05.23 |     44089    |    62486
        6  | 13:53.12 |  4:06.40 |     62487    |    80976
        7  | 17:59.52 |  2:04.39 |     80977    |    90315
        8  | 20:04.16 |  2:41.56 |     90316    |   102446
        9  | 22:45.72 |  4:22.17 |    102447    |   122113
       10  | 27:08.14 |  3:40.31 |    122114    |   138644
       11  | 30:48.45 |  4:10.51 |    138645    |   157445
       12  | 34:59.21 |  4:04.61 |    157446    |   175806
       13  | 39:04.07 |  2:49.71 |    175807    |   188552
       14  | 41:54.03 |  1:31.28 |    188553    |   195405

Range status and errors

Selected range

     Filename M:\FLAC (bruk67)\MP3\Вячеслав Бутусов (Ю-Питер) FLAC\2001 - Тихие игры (Переиздание 2007)\Вячеслав Бутусов - Тихие игры.wav

     Peak level 98.4 %
     Extraction speed 7.5 X
     Range quality 100.0 %
     Test CRC EDEAC258
     Copy CRC EDEAC258
     Copy OK

No errors occurred

AccurateRip summary

Track  1  not present in database
Track  2  not present in database
Track  3  not present in database
Track  4  not present in database
Track  5  not present in database
Track  6  not present in database
Track  7  not present in database
Track  8  not present in database
Track  9  not present in database
Track 10  not present in database
Track 11  not present in database
Track 12  not present in database
Track 13  not present in database
Track 14  not present in database

None of the tracks are present in the AccurateRip database

End of status report

---- CUETools DB Plugin V2.1.3

[CTDB TOCID: Y6Bqnf3ro3qMys2f4TAtJsH4rrw-] disk not present in database, Submit result: Y6Bqnf3ro3qMys2f4TAtJsH4rrw- has been uploaded

==== Log checksum 58D56BCC7C07A12D0636B938871705581BC2625F428F3B3093FA4B2ECE6DF14A ====
Код:

DON'T MODIFY THIS FILE

-----------------------

PERFORMER: auCDtect Task Manager, ver. 1.6.0 RC1 build 1.6.0.1
Copyright (c) 2008-2010 y-soft. All rights reserved
http://y-soft.org

ANALYZER: auCDtect: CD records authenticity detector, version 0.8.2
Copyright (c) 2004 Oleg Berngardt. All rights reserved.
Copyright (c) 2004 Alexander Djourik. All rights reserved.

FILE: Вячеслав Бутусов - Тихие игры.flac
  Size: 279184693 Hash: 2BD0C43AD600489695A7AF202A55CEB5 Accuracy: -m0
  Conclusion: CDDA 100%
  Signature: BA191AC200119EBCB05E2FDEB8270AD5350361B8
Страна-производитель диска: Россия
Год издания диска: 2001
Издатель (лейбл): Никитин
Номер по каталогу: HH-48CD/01
Продолжительность: 00:49:40

Трек лист:

01. Антарктида
02. На лианах
03. В подводных лесах
04. Брунгильда
05. Гамбург
06. Куклы мадам Манделип
07. Женщина в метро
08. Мама научи...
09. Мауна Лоа
10. Собака Баскервилей
11. Утопленник
12. Кони Йото
Код:

Exact Audio Copy V1.0 beta 3 from 29. August 2011

EAC extraction logfile from 13. July 2012, 19:36

Вячеслав Бутусов и музыканты группы "Кино" / Звёздный падл

Used drive  : PLEXTOR DVDR   PX-760A   Adapter: 4  ID: 2

Read mode               : Secure
Utilize accurate stream : Yes
Defeat audio cache      : Yes
Make use of C2 pointers : No

Read offset correction                      : 30
Overread into Lead-In and Lead-Out          : Yes
Fill up missing offset samples with silence : Yes
Delete leading and trailing silent blocks   : No
Null samples used in CRC calculations       : Yes
Used interface                              : Installed external ASPI interface

Used output format : Internal WAV Routines
Sample format      : 44.100 Hz; 16 Bit; Stereo

TOC of the extracted CD

     Track |   Start  |  Length  | Start sector | End sector
    ---------------------------------------------------------
        1  |  0:00.00 |  3:35.53 |         0    |    16177
        2  |  3:35.53 |  3:39.09 |     16178    |    32611
        3  |  7:14.62 |  3:30.74 |     32612    |    48435
        4  | 10:45.61 |  3:49.44 |     48436    |    65654
        5  | 14:35.30 |  4:57.09 |     65655    |    87938
        6  | 19:32.39 |  4:08.29 |     87939    |   106567
        7  | 23:40.68 |  4:21.55 |    106568    |   126197
        8  | 28:02.48 |  2:44.24 |    126198    |   138521
        9  | 30:46.72 |  4:43.59 |    138522    |   159805
       10  | 35:30.56 |  3:27.53 |    159806    |   175383
       11  | 38:58.34 |  4:39.71 |    175384    |   196379
       12  | 43:38.30 |  6:01.36 |    196380    |   223490

Range status and errors

Selected range

     Filename M:\FLAC (bruk67)\MP3\Вячеслав Бутусов (Ю-Питер) FLAC\2001 - Звездный падл (Подарочное издание)\Вячеслав Бутусов и музыканты группы ''Кино'' - Звёздный падл.wav

     Peak level 98.8 %
     Extraction speed 6.2 X
     Range quality 100.0 %
     Test CRC BCD248AE
     Copy CRC BCD248AE
     Copy OK

No errors occurred

AccurateRip summary

Track  1  accurately ripped (confidence 4)  [347AE7BA]  (AR v1)
Track  2  accurately ripped (confidence 3)  [4D83FB72]  (AR v1)
Track  3  accurately ripped (confidence 4)  [4516296D]  (AR v1)
Track  4  accurately ripped (confidence 4)  [27818490]  (AR v1)
Track  5  accurately ripped (confidence 3)  [E6765819]  (AR v1)
Track  6  accurately ripped (confidence 3)  [E5FB1C2F]  (AR v1)
Track  7  accurately ripped (confidence 3)  [F32801D6]  (AR v1)
Track  8  accurately ripped (confidence 3)  [71068FFD]  (AR v1)
Track  9  accurately ripped (confidence 3)  [A8311DA4]  (AR v1)
Track 10  accurately ripped (confidence 3)  [D5C002CF]  (AR v1)
Track 11  accurately ripped (confidence 3)  [B569A52D]  (AR v1)
Track 12  accurately ripped (confidence 3)  [397A255D]  (AR v1)

All tracks accurately ripped

End of status report

---- CUETools DB Plugin V2.1.3

[CTDB TOCID: KMDG.VLCFD3j5_DZcCj_LycFrMY-] found, Submit result: KMDG.VLCFD3j5_DZcCj_LycFrMY- has been confirmed
[0e4ec6e6] (5/5) Accurately ripped

==== Log checksum 67DCFAF6D3341FCEF469BF08F9937B7AAA6285A932C84BC3F40C06112B48B3FF ====
Код:

DON'T MODIFY THIS FILE

-----------------------

PERFORMER: auCDtect Task Manager, ver. 1.6.0 RC1 build 1.6.0.1
Copyright (c) 2008-2010 y-soft. All rights reserved
http://y-soft.org

ANALYZER: auCDtect: CD records authenticity detector, version 0.8.2
Copyright (c) 2004 Oleg Berngardt. All rights reserved.
Copyright (c) 2004 Alexander Djourik. All rights reserved.

FILE: Вячеслав Бутусов и музыканты группы ''Кино'' - Звёздный падл.flac
  Size: 321542211 Hash: 1BA17309F501A9F72419B9991C2D1579 Accuracy: -m0
  Conclusion: CDDA 100%
  Signature: 8CB7C98A70396507F0AC6DD60998162E41E6ADEE
Страна-производитель диска: Россия
Год издания диска: 2002
Издатель (лейбл): WWW records
Номер по каталогу: WWW-288 CD/05
Продолжительность: 01:10:46

Трек лист:

01. Мера
02. Гибралтар-Лабрадор
03. Белые пятна
04. Настасья
05. Моя звезда
06. Песня идущего домой
07. Триллипут
08. Ерёма в ответе
09. Кошка, чашка, муха и лапоть
10. Девушка по городу
11. Вот тогда любовь моя
12. Из реки
13. Ударная любовь
14. Элизобарра-Торр
15. Колесницегонитель
16. Юпитер на страже
17. Эхолов (Киевская версия)
18. Настасья (с участием Пелагеи)
19. Девушка по городу (видеоклип)
Код:

Exact Audio Copy V1.0 beta 3 from 29. August 2011

EAC extraction logfile from 19. July 2012, 1:47

Вячеслав Бутусов / Избранное

Used drive  : PLEXTOR DVDR   PX-760A   Adapter: 4  ID: 2

Read mode               : Secure
Utilize accurate stream : Yes
Defeat audio cache      : Yes
Make use of C2 pointers : No

Read offset correction                      : 30
Overread into Lead-In and Lead-Out          : Yes
Fill up missing offset samples with silence : Yes
Delete leading and trailing silent blocks   : No
Null samples used in CRC calculations       : Yes
Used interface                              : Installed external ASPI interface

Used output format : Internal WAV Routines
Sample format      : 44.100 Hz; 16 Bit; Stereo

TOC of the extracted CD

     Track |   Start  |  Length  | Start sector | End sector
    ---------------------------------------------------------
        1  |  0:00.00 |  3:28.39 |         0    |    15638
        2  |  3:28.39 |  4:02.14 |     15639    |    33802
        3  |  7:30.53 |  3:02.63 |     33803    |    47515
        4  | 10:33.41 |  4:28.17 |     47516    |    67632
        5  | 15:01.58 |  5:10.23 |     67633    |    90905
        6  | 20:12.06 |  2:53.12 |     90906    |   103892
        7  | 23:05.18 |  4:31.66 |    103893    |   124283
        8  | 27:37.09 |  3:30.15 |    124284    |   140048
        9  | 31:07.24 |  4:38.64 |    140049    |   160962
       10  | 35:46.13 |  3:15.68 |    160963    |   175655
       11  | 39:02.06 |  5:30.00 |    175656    |   200405
       12  | 44:32.06 |  3:30.26 |    200406    |   216181
       13  | 48:02.32 |  4:09.38 |    216182    |   234894
       14  | 52:11.70 |  4:45.01 |    234895    |   256270
       15  | 56:56.71 |  3:37.17 |    256271    |   272562
       16  | 60:34.13 |  2:02.14 |    272563    |   281726
       17  | 62:36.27 |  4:14.27 |    281727    |   300803
       18  | 66:50.54 |  3:55.02 |    300804    |   318430
       19  | 73:17.56 |  2:12.09 |    329831    |   339739

Range status and errors

Selected range

     Filename M:\FLAC (bruk67)\MP3\Вячеслав Бутусов (Ю-Питер) FLAC\2005 - Избранное\Вячеслав Бутусов - Избранное.wav

     Peak level 100.0 %
     Extraction speed 2.0 X
     Range quality 100.0 %
     Test CRC 4D571612
     Copy CRC 4D571612
     Copy OK

No errors occurred

AccurateRip summary

Track  1  accurately ripped (confidence 3)  [48C3BE25]  (AR v1)
Track  2  accurately ripped (confidence 3)  [EF41BF22]  (AR v1)
Track  3  accurately ripped (confidence 3)  [1DF60967]  (AR v1)
Track  4  accurately ripped (confidence 3)  [01E92178]  (AR v1)
Track  5  accurately ripped (confidence 3)  [816B91CF]  (AR v1)
Track  6  accurately ripped (confidence 3)  [EEFC28D8]  (AR v1)
Track  7  accurately ripped (confidence 3)  [E1690EE2]  (AR v1)
Track  8  accurately ripped (confidence 3)  [D633889C]  (AR v1)
Track  9  accurately ripped (confidence 3)  [11C914A0]  (AR v1)
Track 10  accurately ripped (confidence 3)  [9DC25552]  (AR v1)
Track 11  accurately ripped (confidence 3)  [3A6762D5]  (AR v1)
Track 12  accurately ripped (confidence 3)  [2DCB5B1D]  (AR v1)
Track 13  accurately ripped (confidence 3)  [D403369E]  (AR v1)
Track 14  accurately ripped (confidence 3)  [56710EE1]  (AR v1)
Track 15  accurately ripped (confidence 3)  [FE06EE21]  (AR v1)
Track 16  accurately ripped (confidence 3)  [0DC4F70D]  (AR v1)
Track 17  accurately ripped (confidence 3)  [0AA2216E]  (AR v1)
Track 18  accurately ripped (confidence 3)  [1ABC0FB2]  (AR v1)

All tracks accurately ripped

End of status report

---- CUETools DB Plugin V2.1.3

[CTDB TOCID: LmSnt3Kp1iLq2UnSa8zlGF8u5ac-] disk not present in database, Submit result: LmSnt3Kp1iLq2UnSa8zlGF8u5ac- has been uploaded

==== Log checksum EE888776148405AF808CE1D32F47377DBB397DBC56561FB5869071ACFF52CBC8 ====
Код:

DON'T MODIFY THIS FILE

-----------------------

PERFORMER: auCDtect Task Manager, ver. 1.6.0 RC1 build 1.6.0.1
Copyright (c) 2008-2010 y-soft. All rights reserved
http://y-soft.org

ANALYZER: auCDtect: CD records authenticity detector, version 0.8.2
Copyright (c) 2004 Oleg Berngardt. All rights reserved.
Copyright (c) 2004 Alexander Djourik. All rights reserved.

FILE: Вячеслав Бутусов - Избранное.flac
  Size: 475366799 Hash: DFD8299260DF3CD1E8BF62BBCDC50C47 Accuracy: -m0
  Conclusion: CDDA 100%
  Signature: 70DE1CE173F5FA35E10588912F92F0C92F74BAFC
Продолжительность: 00:03:40

Audio: Windows Media Audio 44100Hz stereo 64Kbps [Raw Audio 0]
Video: Windows Media Video 9 640x480 25.00fps 651Kbps [Raw Video 1]
Страна-производитель диска: Россия
Год издания диска: 2008
Издатель (лейбл): WWW records
Номер по каталогу: WWW-634CD/08
Продолжительность: 00:45:36

Трек лист:

01 Фея
02 Не остановиться
03 Собаки
04 Головокружение
05 Незаметно
06 Город
07 Солнце
08 Будь как Будда
09 Люблю-Прощай
10 Выключи компьютер, детка
11 Бесконечность
Код:

Exact Audio Copy V0.99 prebeta 5 from 4. May 2009

EAC extraction logfile from 1. May 2013, 22:02

Вячеслав Бутусов / Модель Для Сборки 1

Used drive  : PIONEER DVD-RW  DVR-212   Adapter: 7  ID: 0

Read mode               : Secure
Utilize accurate stream : Yes
Defeat audio cache      : Yes
Make use of C2 pointers : No

Read offset correction                      : 48
Overread into Lead-In and Lead-Out          : No
Fill up missing offset samples with silence : Yes
Delete leading and trailing silent blocks   : No
Null samples used in CRC calculations       : Yes
Used interface                              : Installed external ASPI interface

Used output format : Internal WAV Routines
Sample format      : 44.100 Hz; 16 Bit; Stereo

TOC of the extracted CD

     Track |   Start  |  Length  | Start sector | End sector
    ---------------------------------------------------------
        1  |  0:00.00 |  3:46.08 |         0    |    16957
        2  |  3:46.08 |  3:56.56 |     16958    |    34713
        3  |  7:42.64 |  3:58.49 |     34714    |    52612
        4  | 11:41.38 |  3:32.56 |     52613    |    68568
        5  | 15:14.19 |  2:49.74 |     68569    |    81317
        6  | 18:04.18 |  4:14.74 |     81318    |   100441
        7  | 22:19.17 |  4:12.07 |    100442    |   119348
        8  | 26:31.24 |  3:38.36 |    119349    |   135734
        9  | 30:09.60 |  4:46.31 |    135735    |   157215
       10  | 34:56.16 |  4:55.15 |    157216    |   179355
       11  | 39:51.31 |  5:44.67 |    179356    |   205222

Range status and errors

Selected range

     Filename M:\FLAC (bruk67)\MP3\Вячеслав Бутусов (Ю-Питер) FLAC\2008 - Модель Для Сборки 1\Вячеслав Бутусов - Модель Для Сборки 1.wav

     Peak level 99.9 %
     Range quality 100.0 %
     Test CRC A2DEB4DD
     Copy CRC A2DEB4DD
     Copy OK

No errors occurred

AccurateRip summary

Track  1  accurately ripped (confidence 1)  [CF429B46]
Track  2  accurately ripped (confidence 1)  [79C39C24]
Track  3  accurately ripped (confidence 1)  [DA6B4505]
Track  4  accurately ripped (confidence 1)  [890DDB66]
Track  5  accurately ripped (confidence 1)  [CD803493]
Track  6  accurately ripped (confidence 1)  [609DABB2]
Track  7  accurately ripped (confidence 1)  [821DBFF6]
Track  8  accurately ripped (confidence 1)  [C217E00F]
Track  9  accurately ripped (confidence 1)  [A344CCD8]
Track 10  accurately ripped (confidence 1)  [5124CEC1]
Track 11  accurately ripped (confidence 1)  [26E8629D]

All tracks accurately ripped

End of status report
Код:

DON'T MODIFY THIS FILE

-----------------------

PERFORMER: auCDtect Task Manager, ver. 1.6.0 RC1 build 1.6.0.1
Copyright (c) 2008-2010 y-soft. All rights reserved
http://y-soft.org

ANALYZER: auCDtect: CD records authenticity detector, version 0.8.2
Copyright (c) 2004 Oleg Berngardt. All rights reserved.
Copyright (c) 2004 Alexander Djourik. All rights reserved.

FILE: Вячеслав Бутусов - Модель Для Сборки 1.flac
  Size: 329857623 Hash: EACF4BA15D22947DDF903E5A7D2A51CE Accuracy: -m0
  Conclusion: CDDA 100%
  Signature: 55DCCBD52B5C79F8E1CDFAA2D9CB1B07C0770CEF
Страна-производитель диска: Россия
Год издания диска: 2008
Издатель (лейбл): WWW records
Номер по каталогу: WWW-636CD/08
Продолжительность: 00:45:41

Трек лист:

01 Собаки
02 Выключи компьютер, детка
03 Незаметно
04 Не остановиться
05 Фея
06 Солнце
07 Город
08 Будь как Будда
09 Люблю-Прощай
10 Головокружение
11 Бесконечность
Код:

Exact Audio Copy V1.0 beta 3 from 29. August 2011

EAC extraction logfile from 6. August 2012, 4:04

Вячеслав Бутусов / Модель Для Сборки 3

Used drive  : PLEXTOR DVDR   PX-760A   Adapter: 4  ID: 2

Read mode               : Secure
Utilize accurate stream : Yes
Defeat audio cache      : Yes
Make use of C2 pointers : No

Read offset correction                      : 30
Overread into Lead-In and Lead-Out          : Yes
Fill up missing offset samples with silence : Yes
Delete leading and trailing silent blocks   : No
Null samples used in CRC calculations       : Yes
Used interface                              : Installed external ASPI interface

Used output format : Internal WAV Routines
Sample format      : 44.100 Hz; 16 Bit; Stereo

TOC of the extracted CD

     Track |   Start  |  Length  | Start sector | End sector
    ---------------------------------------------------------
        1  |  0:00.00 |  3:58.49 |         0    |    17898
        2  |  3:58.49 |  4:37.36 |     17899    |    38709
        3  |  8:36.10 |  3:05.07 |     38710    |    52591
        4  | 11:41.17 |  3:48.27 |     52592    |    69718
        5  | 15:29.44 |  3:46.13 |     69719    |    86681
        6  | 19:15.57 |  4:20.45 |     86682    |   106226
        7  | 23:36.27 |  4:08.36 |    106227    |   124862
        8  | 27:44.63 |  3:38.36 |    124863    |   141248
        9  | 31:23.24 |  4:46.31 |    141249    |   162729
       10  | 36:09.55 |  3:46.25 |    162730    |   179704
       11  | 39:56.05 |  5:44.67 |    179705    |   205571

Range status and errors

Selected range

     Filename M:\FLAC (bruk67)\MP3\Вячеслав Бутусов (Ю-Питер) FLAC\2008 - Модель Для Сборки 3\Вячеслав Бутусов - Модель Для Сборки 3.wav

     Peak level 99.9 %
     Extraction speed 7.3 X
     Range quality 99.9 %
     Test CRC C64F3B5F
     Copy CRC C64F3B5F
     Copy OK

No errors occurred

AccurateRip summary

Track  1  accurately ripped (confidence 3)  [F5DAED8F]  (AR v1)
Track  2  accurately ripped (confidence 3)  [C86F9D82]  (AR v1)
Track  3  accurately ripped (confidence 3)  [2CA10836]  (AR v1)
Track  4  accurately ripped (confidence 3)  [F154C0AA]  (AR v1)
Track  5  accurately ripped (confidence 3)  [FFDF6F2C]  (AR v1)
Track  6  accurately ripped (confidence 3)  [B37F0802]  (AR v1)
Track  7  accurately ripped (confidence 3)  [5D0C0E91]  (AR v1)
Track  8  accurately ripped (confidence 3)  [E1178BB2]  (AR v1)
Track  9  accurately ripped (confidence 3)  [1CA2DE56]  (AR v1)
Track 10  accurately ripped (confidence 3)  [2CCDA9FB]  (AR v1)
Track 11  accurately ripped (confidence 3)  [95B0EE58]  (AR v1)

All tracks accurately ripped

End of status report

---- CUETools DB Plugin V2.1.3

[CTDB TOCID: 5eA4lyzwSZewlEzTRvLfHZLpzf0-] disk not present in database, Submit result: 5eA4lyzwSZewlEzTRvLfHZLpzf0- has been uploaded

==== Log checksum B0EE0B7ACE56E21EFB0FB90C0B4429B58DA17B684E90463D25A26C56881720D9 ====
Код:

DON'T MODIFY THIS FILE

-----------------------

PERFORMER: auCDtect Task Manager, ver. 1.6.0 RC1 build 1.6.0.1
Copyright (c) 2008-2010 y-soft. All rights reserved
http://y-soft.org

ANALYZER: auCDtect: CD records authenticity detector, version 0.8.2
Copyright (c) 2004 Oleg Berngardt. All rights reserved.
Copyright (c) 2004 Alexander Djourik. All rights reserved.

FILE: Вячеслав Бутусов - Модель Для Сборки 3.flac
  Size: 330084836 Hash: 84AE49AF527D73FC383C1C54E9553146 Accuracy: -m0
  Conclusion: CDDA 100%
  Signature: 40ADF6E54C01878C03B90BBB7FE666EF3EF45BED
Страна-производитель диска: Россия
Год издания диска: 2008
Издатель (лейбл): WWW records
Номер по каталогу: WWW-637CD/08
Продолжительность: 00:45:48

Трек лист:

01. Фея
02. Не остановиться
03. Собаки
04. Головокружение
05. Незаметно
06. Город
07. Солнце
08. Будь как Будда
09. Люблю-прощай
10. Выключи компьютер, детка
11. Бесконечность
Код:

Exact Audio Copy V1.0 beta 3 from 29. August 2011

EAC extraction logfile from 19. July 2012, 2:56

Вячеслав Бутусов / Модель Для Сборки

Used drive  : PLEXTOR DVDR   PX-760A   Adapter: 4  ID: 2

Read mode               : Secure
Utilize accurate stream : Yes
Defeat audio cache      : Yes
Make use of C2 pointers : No

Read offset correction                      : 30
Overread into Lead-In and Lead-Out          : Yes
Fill up missing offset samples with silence : Yes
Delete leading and trailing silent blocks   : No
Null samples used in CRC calculations       : Yes
Used interface                              : Installed external ASPI interface

Used output format : Internal WAV Routines
Sample format      : 44.100 Hz; 16 Bit; Stereo

TOC of the extracted CD

     Track |   Start  |  Length  | Start sector | End sector
    ---------------------------------------------------------
        1  |  0:00.00 |  3:46.08 |         0    |    16957
        2  |  3:46.08 |  3:56.56 |     16958    |    34713
        3  |  7:42.64 |  4:10.19 |     34714    |    53482
        4  | 11:53.08 |  3:32.56 |     53483    |    69438
        5  | 15:25.64 |  2:49.74 |     69439    |    82187
        6  | 18:15.63 |  4:14.73 |     82188    |   101310
        7  | 22:30.61 |  4:12.07 |    101311    |   120217
        8  | 26:42.68 |  3:38.36 |    120218    |   136603
        9  | 30:21.29 |  4:46.32 |    136604    |   158085
       10  | 35:07.61 |  4:55.14 |    158086    |   180224
       11  | 40:03.00 |  5:44.67 |    180225    |   206091

Range status and errors

Selected range

     Filename M:\FLAC (bruk67)\MP3\Вячеслав Бутусов (Ю-Питер) FLAC\2008 - Модель Для Сборки (Подарочное издание)\Вячеслав Бутусов - Модель Для Сборки.wav

     Peak level 99.9 %
     Extraction speed 1.9 X
     Range quality 100.0 %
     Test CRC 1D55AF2B
     Copy CRC 1D55AF2B
     Copy OK

No errors occurred

AccurateRip summary

Track  1  not present in database
Track  2  not present in database
Track  3  not present in database
Track  4  not present in database
Track  5  not present in database
Track  6  not present in database
Track  7  not present in database
Track  8  not present in database
Track  9  not present in database
Track 10  not present in database
Track 11  not present in database

None of the tracks are present in the AccurateRip database

End of status report

---- CUETools DB Plugin V2.1.3

[CTDB TOCID: Xa9HCHZd5Dy08.kZYwRbZAVde3s-] disk not present in database, Submit result: Xa9HCHZd5Dy08.kZYwRbZAVde3s- has been uploaded

==== Log checksum 5B46BDCA4E40CD3EB5168049C7AAEB8608C2E4EB145094A84EA313192F86CC90 ====
Код:

DON'T MODIFY THIS FILE

-----------------------

PERFORMER: auCDtect Task Manager, ver. 1.6.0 RC1 build 1.6.0.1
Copyright (c) 2008-2010 y-soft. All rights reserved
http://y-soft.org

ANALYZER: auCDtect: CD records authenticity detector, version 0.8.2
Copyright (c) 2004 Oleg Berngardt. All rights reserved.
Copyright (c) 2004 Alexander Djourik. All rights reserved.

FILE: Вячеслав Бутусов - Модель Для Сборки.flac
  Size: 330553798 Hash: F60F4A258F5BFC4CF0D2F1B77F924D32 Accuracy: -m0
  Conclusion: CDDA 100%
  Signature: C3E5751EFBAC4A6AE540755A393FDF76E212F44C
Страна-производитель диска: Россия
Год издания диска: 2001
Издатель (лейбл): Никитин
Номер по каталогу: HH-68CD/01
Продолжительность: 00:14:19

Трек лист:

01. Ударная любовь
02. Кони Йото
03. Real Name
(Bonus)
Код:

Exact Audio Copy V1.0 beta 3 from 29. August 2011

EAC extraction logfile from 10. August 2012, 18:34

Ю-Питер / Ударная любовь

Used drive  : BENQ    DVD DD DW1640   Adapter: 1  ID: 0

Read mode               : Secure
Utilize accurate stream : Yes
Defeat audio cache      : Yes
Make use of C2 pointers : No

Read offset correction                      : 618
Overread into Lead-In and Lead-Out          : No
Fill up missing offset samples with silence : Yes
Delete leading and trailing silent blocks   : No
Null samples used in CRC calculations       : Yes
Used interface                              : Native Win32 interface for Win NT & 2000

Used output format : Internal WAV Routines
Sample format      : 44.100 Hz; 16 Bit; Stereo

TOC of the extracted CD

     Track |   Start  |  Length  | Start sector | End sector
    ---------------------------------------------------------
        1  |  0:00.10 |  4:08.66 |        10    |    18675
        2  |  4:09.01 |  6:03.33 |     18676    |    45933
        3  | 10:12.34 |  4:06.33 |     45934    |    64416

Range status and errors

Selected range

     Filename E:\nauzer\Ю-Питер - Ударная любовь.wav

     Peak level 98.8 %
     Extraction speed 5.9 X
     Range quality 99.9 %
     Test CRC 0195D58F
     Copy CRC 0195D58F
     Copy OK

No errors occurred

AccurateRip summary

Track  1  accurately ripped (confidence 4)  [8B1F31C7]  (AR v1)
Track  2  accurately ripped (confidence 4)  [0BA0C3BE]  (AR v1)
Track  3  accurately ripped (confidence 4)  [20BA7234]  (AR v1)

All tracks accurately ripped

End of status report

---- CUETools DB Plugin V2.1.3

[CTDB TOCID: BkCehInv1ngc0xfTDBtgQG2wZQs-] disk not present in database, Submit result: discs with pregaps not supported in this protocol version

==== Log checksum 6FD869B30AAD28641632974A76A0FBBA07EFC9BB2C2A2243532D426C0254FFF6 ====
Код:

DON'T MODIFY THIS FILE

-----------------------

PERFORMER: auCDtect Task Manager, ver. 1.6.0 RC1 build 1.6.0.1
Copyright (c) 2008-2010 y-soft. All rights reserved
http://y-soft.org

ANALYZER: auCDtect: CD records authenticity detector, version 0.8.2
Copyright (c) 2004 Oleg Berngardt. All rights reserved.
Copyright (c) 2004 Alexander Djourik. All rights reserved.

FILE: Ю-Питер - Ударная любовь.flac
  Size: 96506068 Hash: 9860CA9A0DBAA625242F5B207FC8441E Accuracy: -m0
  Conclusion: CDDA 100%
  Signature: D1AB8572A352B5DDE872D5B771D5C0FDF13E938B
Страна-производитель диска: Россия
Год издания диска: 2003
Издатель (лейбл): Квадро-диск
Номер по каталогу: KTL03-783
Продолжительность: 00:42:56

Трек лист:

01. Сердце камня
02. Странглия
03. Чудеса небесны
04. Ерёма в ответе
05. Мера
06. Колесницегонитель
07. Я покидаю землю
08. Негорькая слеза
09. Ударная любовь
10. Реки Бэгэ
11. Могилы младших сестёр
Код:

Exact Audio Copy V1.0 beta 3 from 29. August 2011

EAC extraction logfile from 14. July 2012, 2:50

Вячеслав Бутусов / Имя рек

Used drive  : PLEXTOR DVDR   PX-760A   Adapter: 4  ID: 2

Read mode               : Secure
Utilize accurate stream : Yes
Defeat audio cache      : Yes
Make use of C2 pointers : No

Read offset correction                      : 30
Overread into Lead-In and Lead-Out          : Yes
Fill up missing offset samples with silence : Yes
Delete leading and trailing silent blocks   : No
Null samples used in CRC calculations       : Yes
Used interface                              : Installed external ASPI interface

Used output format : Internal WAV Routines
Sample format      : 44.100 Hz; 16 Bit; Stereo

TOC of the extracted CD

     Track |   Start  |  Length  | Start sector | End sector
    ---------------------------------------------------------
        1  |  0:00.00 |  4:54.66 |         0    |    22115
        2  |  4:54.66 |  2:54.59 |     22116    |    35224
        3  |  7:49.50 |  3:27.51 |     35225    |    50800
        4  | 11:17.26 |  3:29.52 |     50801    |    66527
        5  | 14:47.03 |  3:31.13 |     66528    |    82365
        6  | 18:18.16 |  3:53.61 |     82366    |    99901
        7  | 22:12.02 |  3:27.60 |     99902    |   115486
        8  | 25:39.62 |  3:50.14 |    115487    |   132750
        9  | 29:30.01 |  3:21.55 |    132751    |   147880
       10  | 32:51.56 |  2:48.54 |    147881    |   160534
       11  | 35:40.35 |  7:15.25 |    160535    |   193184

Range status and errors

Selected range

     Filename M:\FLAC (bruk67)\MP3\Вячеслав Бутусов (Ю-Питер) FLAC\2003 - Имя рек\Вячеслав Бутусов - Имя рек.wav

     Peak level 100.0 %
     Extraction speed 5.8 X
     Range quality 99.9 %
     Test CRC 7D050D7A
     Copy CRC 7D050D7A
     Copy OK

No errors occurred

AccurateRip summary

Track  1  accurately ripped (confidence 11)  [E654C273]  (AR v1)
Track  2  accurately ripped (confidence 10)  [A7A72A1B]  (AR v1)
Track  3  accurately ripped (confidence 10)  [C41ACFFF]  (AR v1)
Track  4  accurately ripped (confidence 10)  [4F3D5D11]  (AR v1)
Track  5  accurately ripped (confidence 10)  [8468B567]  (AR v1)
Track  6  accurately ripped (confidence 10)  [592F193D]  (AR v1)
Track  7  accurately ripped (confidence 10)  [7ED20B52]  (AR v1)
Track  8  accurately ripped (confidence 9)  [D1275C1D]  (AR v1)
Track  9  accurately ripped (confidence 8)  [87A76C22]  (AR v1)
Track 10  accurately ripped (confidence 9)  [DEFEC59B]  (AR v1)
Track 11  accurately ripped (confidence 9)  [A0392F1B]  (AR v1)

All tracks accurately ripped

End of status report

---- CUETools DB Plugin V2.1.3

[CTDB TOCID: AWgJuUXOF1wa6eZgphI6lEZyoUY-] found, Submit result: AWgJuUXOF1wa6eZgphI6lEZyoUY- has been confirmed
[0eddd29f] (10/10) Accurately ripped

==== Log checksum CB8DF542209A8068A67E1F5FD672FF013C520B0401F57D38214256FD952A97CD ====
Код:

DON'T MODIFY THIS FILE

-----------------------

PERFORMER: auCDtect Task Manager, ver. 1.6.0 RC1 build 1.6.0.1
Copyright (c) 2008-2010 y-soft. All rights reserved
http://y-soft.org

ANALYZER: auCDtect: CD records authenticity detector, version 0.8.2
Copyright (c) 2004 Oleg Berngardt. All rights reserved.
Copyright (c) 2004 Alexander Djourik. All rights reserved.

FILE: Вячеслав Бутусов & Ю-Питер - Имя рек.flac
  Size: 325879078 Hash: 1256DFCF5321FC742C5C9DFB9AA2AB04 Accuracy: -m0
  Conclusion: CDDA 100%
  Signature: 7F116E64B98AB3476C316924D7687BF44F3A4C7C
Страна-производитель диска: Россия
Год издания диска: 2004
Издатель (лейбл): WWW records
Номер по каталогу: WWW-240CD/04
Продолжительность: 00:36:29

Трек лист:

01. Три солнца
02. Птица каратель
03. Эхолов
04. Белые пятна
05. Биометрия
06. Песня идущего домой
07. Сердце Эллина
08. Так любил
09. Девушка по городу
10. Колесницегонитель
11. Из реки
12. Во сне
Код:

Exact Audio Copy V1.0 beta 3 from 29. August 2011

EAC extraction logfile from 14. July 2012, 0:54

Вячеслав Бутусов & Ю-Питер / Биографика

Used drive  : PLEXTOR DVDR   PX-760A   Adapter: 4  ID: 2

Read mode               : Secure
Utilize accurate stream : Yes
Defeat audio cache      : Yes
Make use of C2 pointers : No

Read offset correction                      : 30
Overread into Lead-In and Lead-Out          : Yes
Fill up missing offset samples with silence : Yes
Delete leading and trailing silent blocks   : No
Null samples used in CRC calculations       : Yes
Used interface                              : Installed external ASPI interface

Used output format : Internal WAV Routines
Sample format      : 44.100 Hz; 16 Bit; Stereo

TOC of the extracted CD

     Track |   Start  |  Length  | Start sector | End sector
    ---------------------------------------------------------
        1  |  0:00.00 |  3:10.74 |         0    |    14323
        2  |  3:10.74 |  3:12.43 |     14324    |    28766
        3  |  6:23.42 |  3:40.65 |     28767    |    45331
        4  | 10:04.32 |  3:00.39 |     45332    |    58870
        5  | 13:04.71 |  1:58.14 |     58871    |    67734
        6  | 15:03.10 |  2:50.64 |     67735    |    80548
        7  | 17:53.74 |  2:58.08 |     80549    |    93906
        8  | 20:52.07 |  2:01.30 |     93907    |   103011
        9  | 22:53.37 |  3:13.25 |    103012    |   117511
       10  | 26:06.62 |  3:34.53 |    117512    |   133614
       11  | 29:41.40 |  3:30.35 |    133615    |   149399
       12  | 33:12.00 |  3:16.66 |    149400    |   164165

Range status and errors

Selected range

     Filename M:\FLAC (bruk67)\MP3\Вячеслав Бутусов (Ю-Питер) FLAC\2004 - Биографика\Вячеслав Бутусов & Ю-Питер - Биографика.wav

     Peak level 100.0 %
     Extraction speed 7.0 X
     Range quality 99.9 %
     Test CRC 522DFBB0
     Copy CRC 522DFBB0
     Copy OK

No errors occurred

AccurateRip summary

Track  1  accurately ripped (confidence 7)  [A6CA2E43]  (AR v1)
Track  2  accurately ripped (confidence 7)  [8A8A84BE]  (AR v1)
Track  3  accurately ripped (confidence 6)  [0902BBB1]  (AR v1)
Track  4  accurately ripped (confidence 6)  [FA8C2C2B]  (AR v1)
Track  5  accurately ripped (confidence 6)  [C56D2A53]  (AR v1)
Track  6  accurately ripped (confidence 6)  [3BBAF682]  (AR v1)
Track  7  accurately ripped (confidence 6)  [DE5D268E]  (AR v1)
Track  8  accurately ripped (confidence 6)  [A2628ABD]  (AR v1)
Track  9  accurately ripped (confidence 6)  [03124F83]  (AR v1)
Track 10  accurately ripped (confidence 6)  [962F5379]  (AR v1)
Track 11  accurately ripped (confidence 6)  [2E314CD7]  (AR v1)
Track 12  accurately ripped (confidence 6)  [9367F1FE]  (AR v1)

All tracks accurately ripped

End of status report

---- CUETools DB Plugin V2.1.3

[CTDB TOCID: ee4ix46VzEXHG83SRquUhb2tuB8-] found, Submit result: ee4ix46VzEXHG83SRquUhb2tuB8- has been confirmed
[1055d3e7] (09/10) Accurately ripped
[b5a6636e] (01/10) No match

==== Log checksum 86432BCE99A06491AEA65786E13FA4777F5E6FE57BC94917EAF1E3F4436CDAD7 ====
Код:

DON'T MODIFY THIS FILE

-----------------------

PERFORMER: auCDtect Task Manager, ver. 1.6.0 RC1 build 1.6.0.1
Copyright (c) 2008-2010 y-soft. All rights reserved
http://y-soft.org

ANALYZER: auCDtect: CD records authenticity detector, version 0.8.2
Copyright (c) 2004 Oleg Berngardt. All rights reserved.
Copyright (c) 2004 Alexander Djourik. All rights reserved.

FILE: Вячеслав Бутусов & Ю-Питер - Биографика.flac
  Size: 257653950 Hash: 8ACCB996633B05061A8CC125241587D7 Accuracy: -m0
  Conclusion: CDDA 100%
  Signature: 30E0056CB3490C932439EC79615C144DDE145EAE
Страна-производитель диска: Россия
Год издания диска: 2004
Издатель (лейбл): WWW records
Номер по каталогу: WWW-240CD/04-DOR
Продолжительность: 00:52:08

Трек лист:

01. Три солнца
02. Птица каратель
03. Эхолов
04. Белые пятна
05. Биометрия
06. Песня идущего домой
07. Сердце Эллина
08. Так любил
09. Девушка по городу
10. Колесницегонитель
11. Из реки
12. Во сне
13. Мера (Бонус)
14. Девушка по городу (видеоклип)
Код:

Exact Audio Copy V0.99 prebeta 5 from 4. May 2009

EAC extraction logfile from 1. May 2013, 2:27

Вячеслав Бутусов & Ю-Питер / Биографика (Limited Edition)

Used drive  : PLEXTOR DVDR   PX-760A   Adapter: 4  ID: 2

Read mode               : Secure
Utilize accurate stream : Yes
Defeat audio cache      : Yes
Make use of C2 pointers : No

Read offset correction                      : 30
Overread into Lead-In and Lead-Out          : Yes
Fill up missing offset samples with silence : Yes
Delete leading and trailing silent blocks   : No
Null samples used in CRC calculations       : Yes
Used interface                              : Installed external ASPI interface

Used output format : Internal WAV Routines
Sample format      : 44.100 Hz; 16 Bit; Stereo

TOC of the extracted CD

     Track |   Start  |  Length  | Start sector | End sector
    ---------------------------------------------------------
        1  |  0:00.00 |  3:11.23 |         0    |    14347
        2  |  3:11.23 |  3:12.46 |     14348    |    28793
        3  |  6:23.69 |  3:40.49 |     28794    |    45342
        4  | 10:04.43 |  3:00.66 |     45343    |    58908
        5  | 13:05.34 |  1:57.61 |     58909    |    67744
        6  | 15:03.20 |  2:50.74 |     67745    |    80568
        7  | 17:54.19 |  2:58.15 |     80569    |    93933
        8  | 20:52.34 |  2:01.05 |     93934    |   103013
        9  | 22:53.39 |  3:13.22 |    103014    |   117510
       10  | 26:06.61 |  3:35.49 |    117511    |   133684
       11  | 29:42.35 |  3:40.30 |    133685    |   150214
       12  | 33:22.65 |  3:06.29 |    150215    |   164193
       13  | 36:29.19 |  3:43.56 |    164194    |   180974
       14  | 42:45.00 | 11:55.23 |    192375    |   246022

Range status and errors

Selected range

     Filename M:\FLAC (bruk67)\MP3\Вячеслав Бутусов (Ю-Питер) FLAC\2004 - Биографика (Подарочное издание)\Вячеслав Бутусов & Ю-Питер - Биографика (Limited Edition).wav

     Peak level 33.3 %
     Range quality 100.0 %
     Test CRC 6B3FD935
     Copy CRC 6B3FD935
     Copy OK

No errors occurred

AccurateRip summary

Track  1  not present in database
Track  2  not present in database
Track  3  not present in database
Track  4  not present in database
Track  5  not present in database
Track  6  not present in database
Track  7  not present in database
Track  8  not present in database
Track  9  not present in database
Track 10  not present in database
Track 11  not present in database
Track 12  not present in database
Track 13  not present in database

None of the tracks are present in the AccurateRip database

End of status report
Код:

DON'T MODIFY THIS FILE

-----------------------

PERFORMER: auCDtect Task Manager, ver. 1.6.0 RC1 build 1.6.0.1
Copyright (c) 2008-2010 y-soft. All rights reserved
http://y-soft.org

ANALYZER: auCDtect: CD records authenticity detector, version 0.8.2
Copyright (c) 2004 Oleg Berngardt. All rights reserved.
Copyright (c) 2004 Alexander Djourik. All rights reserved.

FILE: Вячеслав Бутусов & Ю-Питер - Биографика (Limited Edition).flac
  Size: 242319677 Hash: 74219CEAD359007A814E9437272B200B Accuracy: -m0
  Conclusion: CDDA 100%
  Signature: A5B846697EBE7F533600A21079496AEE49028EF4
Продолжительность: 00:03:40

Video: MPEG1 Video 720x576 25.00fps 3000Kbps [Video]
Audio: MPEG Audio 44100Hz stereo 128Kbps [Audio]
Страна-производитель диска: Россия
Год издания диска: 2008
Издатель (лейбл): Никитин
Номер по каталогу: ТФН-CD 529/08
Продолжительность: 00:36:04

Трек лист:

01. Израяврай
02. Нога Бойца
03. Скажи Мне, Птица
04. Исполин
05. Там
06. Вселенская
07. Вниз Головой
08. Богомол
09. Холода
10. Звезда
Код:

Exact Audio Copy V1.0 beta 3 from 29. August 2011

EAC extraction logfile from 13. July 2012, 16:25

Вячеслав Бутусов & Ю-Питер / Богомол

Used drive  : PLEXTOR DVDR   PX-760A   Adapter: 4  ID: 2

Read mode               : Secure
Utilize accurate stream : Yes
Defeat audio cache      : Yes
Make use of C2 pointers : No

Read offset correction                      : 30
Overread into Lead-In and Lead-Out          : Yes
Fill up missing offset samples with silence : Yes
Delete leading and trailing silent blocks   : No
Null samples used in CRC calculations       : Yes
Used interface                              : Installed external ASPI interface

Used output format : Internal WAV Routines
Sample format      : 44.100 Hz; 16 Bit; Stereo

TOC of the extracted CD

     Track |   Start  |  Length  | Start sector | End sector
    ---------------------------------------------------------
        1  |  0:00.00 |  3:25.23 |         0    |    15397
        2  |  3:25.23 |  3:30.37 |     15398    |    31184
        3  |  6:55.60 |  3:38.16 |     31185    |    47550
        4  | 10:34.01 |  3:58.41 |     47551    |    65441
        5  | 14:32.42 |  3:19.40 |     65442    |    80406
        6  | 17:52.07 |  4:02.15 |     80407    |    98571
        7  | 21:54.22 |  3:07.60 |     98572    |   112656
        8  | 25:02.07 |  4:23.55 |    112657    |   132436
        9  | 29:25.62 |  3:09.57 |    132437    |   146668
       10  | 32:35.44 |  3:28.60 |    146669    |   162328

Range status and errors

Selected range

     Filename M:\FLAC (bruk67)\MP3\Вячеслав Бутусов (Ю-Питер) FLAC\2008 - Богомол (Подарочное издание)\Вячеслав Бутусов & Ю-Питер - Богомол.wav

     Peak level 96.5 %
     Extraction speed 5.8 X
     Range quality 100.0 %
     Test CRC 81755812
     Copy CRC 81755812
     Copy OK

No errors occurred

AccurateRip summary

Track  1  accurately ripped (confidence 2)  [7B8D68CD]  (AR v1)
Track  2  accurately ripped (confidence 2)  [C0CA8D21]  (AR v1)
Track  3  accurately ripped (confidence 2)  [D486B687]  (AR v1)
Track  4  accurately ripped (confidence 2)  [D63949C6]  (AR v1)
Track  5  accurately ripped (confidence 2)  [34987ABC]  (AR v1)
Track  6  accurately ripped (confidence 2)  [AE48620F]  (AR v1)
Track  7  accurately ripped (confidence 2)  [8A38FCE3]  (AR v1)
Track  8  accurately ripped (confidence 2)  [81CD9D90]  (AR v1)
Track  9  accurately ripped (confidence 2)  [CA82BAF8]  (AR v1)
Track 10  accurately ripped (confidence 2)  [28E79574]  (AR v1)

All tracks accurately ripped

End of status report

---- CUETools DB Plugin V2.1.3

[CTDB TOCID: t_XkEqqbkqmBG._bCYjz_B9lA_w-] found, Submit result: t_XkEqqbkqmBG._bCYjz_B9lA_w- has been confirmed
[fd8aecdd] (6/6) Accurately ripped

==== Log checksum E4CE940D469869F8ED97D6E13C2BD81BF54819CC6ABAACB61F5DB25CF76B4511 ====
Код:

DON'T MODIFY THIS FILE

-----------------------

PERFORMER: auCDtect Task Manager, ver. 1.6.0 RC1 build 1.6.0.1
Copyright (c) 2008-2010 y-soft. All rights reserved
http://y-soft.org

ANALYZER: auCDtect: CD records authenticity detector, version 0.8.2
Copyright (c) 2004 Oleg Berngardt. All rights reserved.
Copyright (c) 2004 Alexander Djourik. All rights reserved.

FILE: Вячеслав Бутусов & Ю-Питер - Богомол.flac
  Size: 234055638 Hash: A2B2ECC0A46E9759AECBB2311A7E0268 Accuracy: -m0
  Conclusion: CDDA 100%
  Signature: D0799D55713250A69381E3E19FF66E873E170EF0
Страна-производитель диска: Россия
Год издания диска: 2010
Издатель (лейбл): СОЮЗ
Номер по каталогу: SZCD 7137-10
Продолжительность: 00:52:25

Трек лист:

01 Глаза
02 Скалолазы
03 Это
04 Прятки
05 Небо земли
06 Что же я такого
07 Чистый плюс
08 Враг
09 Цветок
10 Терновник
11 Невесомость
12 Дети минут (акустика)
13 Дети минут (электро)
14 Глаза
Код:

Exact Audio Copy V1.0 beta 3 from 29. August 2011

EAC extraction logfile from 13. July 2012, 21:38

Вячеслав Бутусов & Ю-Питер / Цветы и Тернии

Used drive  : PLEXTOR DVDR   PX-760A   Adapter: 4  ID: 2

Read mode               : Secure
Utilize accurate stream : Yes
Defeat audio cache      : Yes
Make use of C2 pointers : No

Read offset correction                      : 30
Overread into Lead-In and Lead-Out          : Yes
Fill up missing offset samples with silence : Yes
Delete leading and trailing silent blocks   : No
Null samples used in CRC calculations       : Yes
Used interface                              : Installed external ASPI interface

Used output format : Internal WAV Routines
Sample format      : 44.100 Hz; 16 Bit; Stereo

TOC of the extracted CD

     Track |   Start  |  Length  | Start sector | End sector
    ---------------------------------------------------------
        1  |  0:00.00 |  4:40.71 |         0    |    21070
        2  |  4:40.71 |  4:03.74 |     21071    |    39369
        3  |  8:44.70 |  3:39.60 |     39370    |    55854
        4  | 12:24.55 |  3:52.67 |     55855    |    73321
        5  | 16:17.47 |  3:20.30 |     73322    |    88351
        6  | 19:38.02 |  5:43.52 |     88352    |   114128
        7  | 25:21.54 |  3:20.58 |    114129    |   129186
        8  | 28:42.37 |  2:57.15 |    129187    |   142476
        9  | 31:39.52 |  4:24.25 |    142477    |   162301
       10  | 36:04.02 |  3:43.04 |    162302    |   179030
       11  | 39:47.06 |  3:17.37 |    179031    |   193842
       12  | 43:04.43 |  4:26.30 |    193843    |   213822
       13  | 47:30.73 |  4:53.61 |    213823    |   235858
       14  | 54:56.59 | 10:56.24 |    247259    |   296482

Range status and errors

Selected range

     Filename M:\FLAC (bruk67)\MP3\Вячеслав Бутусов (Ю-Питер) FLAC\2010 - Цветы и Тернии (Подарочное издание)\Вячеслав Бутусов & Ю-Питер - Цветы и Тернии.wav

     Peak level 100.0 %
     Extraction speed 7.6 X
     Range quality 100.0 %
     Test CRC 2F628699
     Copy CRC 2F628699
     Copy OK

No errors occurred

AccurateRip summary

Track  1  accurately ripped (confidence 2)  [164C0DB4]  (AR v2)
Track  2  accurately ripped (confidence 2)  [C8CFF43D]  (AR v2)
Track  3  accurately ripped (confidence 2)  [B40C1FED]  (AR v2)
Track  4  accurately ripped (confidence 2)  [80814E72]  (AR v2)
Track  5  accurately ripped (confidence 2)  [1316FC56]  (AR v2)
Track  6  accurately ripped (confidence 2)  [63BEA152]  (AR v2)
Track  7  accurately ripped (confidence 2)  [3F09445C]  (AR v2)
Track  8  accurately ripped (confidence 2)  [ADA2A5A0]  (AR v2)
Track  9  accurately ripped (confidence 2)  [CF11A12A]  (AR v2)
Track 10  accurately ripped (confidence 2)  [3CCBA1AE]  (AR v2)
Track 11  accurately ripped (confidence 2)  [928D8526]  (AR v2)
Track 12  accurately ripped (confidence 2)  [2791CCDC]  (AR v2)
Track 13  accurately ripped (confidence 2)  [01913118]  (AR v2)

All tracks accurately ripped

End of status report

---- CUETools DB Plugin V2.1.3

[CTDB TOCID: OMzUS7Xc2kO9Tj_.DfQWunvus_E-] found, Submit result: OMzUS7Xc2kO9Tj_.DfQWunvus_E- has been confirmed
[f64ff248] (2/2) Accurately ripped

==== Log checksum 0D31D0DD681BF2E75B5CA8824F57DA45A600BBFEC8928B17BFED91B7499A4912 ====
Код:

DON'T MODIFY THIS FILE

-----------------------

PERFORMER: auCDtect Task Manager, ver. 1.6.0 RC1 build 1.6.0.1
Copyright (c) 2008-2010 y-soft. All rights reserved
http://y-soft.org

ANALYZER: auCDtect: CD records authenticity detector, version 0.8.2
Copyright (c) 2004 Oleg Berngardt. All rights reserved.
Copyright (c) 2004 Alexander Djourik. All rights reserved.

FILE: Вячеслав Бутусов & Ю-Питер - Цветы и Тернии.flac
  Size: 387735111 Hash: C10FAD7AE9C07C0258BC2C9B67171B71 Accuracy: -m0
  Conclusion: CDDA 100%
  Signature: 2505CBC8BB86152F3CCDA14DC74083B0CD57C190
Страна-производитель диска: Россия
Год издания диска: 2010
Издатель (лейбл): СОЮЗ
Номер по каталогу: SZCD 7298-11
Продолжительность: 00:52:51

Трек лист:

01 Глаза
02 Скалолазы
03 Это
04 Прятки
05 Небо земли
06 Что же я такого
07 Чистый плюс
08 Враг
09 Цветок
10 Терновник
11 Невесомость
12 Дети минут (акустика)
13 Дети минут (электро)
Код:

Exact Audio Copy V1.0 beta 3 from 29. August 2011

EAC extraction logfile from 18. July 2012, 23:56

Вячеслав Бутусов / Цветы и Тернии

Used drive  : PLEXTOR DVDR   PX-760A   Adapter: 4  ID: 2

Read mode               : Secure
Utilize accurate stream : Yes
Defeat audio cache      : Yes
Make use of C2 pointers : No

Read offset correction                      : 30
Overread into Lead-In and Lead-Out          : Yes
Fill up missing offset samples with silence : Yes
Delete leading and trailing silent blocks   : No
Null samples used in CRC calculations       : Yes
Used interface                              : Installed external ASPI interface

Used output format : Internal WAV Routines
Sample format      : 44.100 Hz; 16 Bit; Stereo

TOC of the extracted CD

     Track |   Start  |  Length  | Start sector | End sector
    ---------------------------------------------------------
        1  |  0:00.00 |  4:42.71 |         0    |    21220
        2  |  4:42.71 |  4:05.74 |     21221    |    39669
        3  |  8:48.70 |  3:41.60 |     39670    |    56304
        4  | 12:30.55 |  3:54.67 |     56305    |    73921
        5  | 16:25.47 |  3:22.30 |     73922    |    89101
        6  | 19:48.02 |  5:45.52 |     89102    |   115028
        7  | 25:33.54 |  3:22.58 |    115029    |   130236
        8  | 28:56.37 |  2:59.15 |    130237    |   143676
        9  | 31:55.52 |  4:26.25 |    143677    |   163651
       10  | 36:22.02 |  3:45.04 |    163652    |   180530
       11  | 40:07.06 |  3:19.37 |    180531    |   195492
       12  | 43:26.43 |  4:28.30 |    195493    |   215622
       13  | 47:54.73 |  4:55.51 |    215623    |   237798

Range status and errors

Selected range

     Filename M:\FLAC (bruk67)\MP3\Вячеслав Бутусов (Ю-Питер) FLAC\2010 - Цветы и Тернии\Вячеслав Бутусов - Цветы и Тернии.wav

     Peak level 100.0 %
     Extraction speed 7.6 X
     Range quality 100.0 %
     Test CRC 943B2A51
     Copy CRC 943B2A51
     Copy OK

No errors occurred

AccurateRip summary

Track  1  not present in database
Track  2  not present in database
Track  3  not present in database
Track  4  not present in database
Track  5  not present in database
Track  6  not present in database
Track  7  not present in database
Track  8  not present in database
Track  9  not present in database
Track 10  not present in database
Track 11  not present in database
Track 12  not present in database
Track 13  not present in database

None of the tracks are present in the AccurateRip database

End of status report

---- CUETools DB Plugin V2.1.3

[CTDB TOCID: B4ObUKTWUCtG_soWafzYviw77kc-] disk not present in database, Submit result: B4ObUKTWUCtG_soWafzYviw77kc- has been uploaded

==== Log checksum 4B95783159D8EB16F263D2C63C7790900CD5629092ABFB466CB91980F62DBDB7 ====
Код:

DON'T MODIFY THIS FILE

-----------------------

PERFORMER: auCDtect Task Manager, ver. 1.6.0 RC1 build 1.6.0.1
Copyright (c) 2008-2010 y-soft. All rights reserved
http://y-soft.org

ANALYZER: auCDtect: CD records authenticity detector, version 0.8.2
Copyright (c) 2004 Oleg Berngardt. All rights reserved.
Copyright (c) 2004 Alexander Djourik. All rights reserved.

FILE: Вячеслав Бутусов & Ю-Питер - Цветы и Тернии.flac
  Size: 387746973 Hash: 34A346B39F956D479544B9AFC04522BF Accuracy: -m0
  Conclusion: CDDA 100%
  Signature: E0A4ED2F85779A4830FFFDCC63A401D5B6901D07
Страна-производитель диска: Россия
Год издания диска: 2010
Издатель (лейбл): CD LAND
Номер по каталогу: CDLREC 5252010 CD
Продолжительность: 01:08:55

Трек лист:

01 Гибралтар-Лабрадор
02 Песня идущего домой
03 Девушка по городу
04 Настасья
05 Кошка, чашка, муха и лапоть
06 Триллипут
07 Я так любил
08 Элизобарра-торр
09 Вот тогда любовь моя
10 Город
11 Я покидаю землю
12 Ударная любовь
13 Эхолов
14 Юпитер на страже
15 Белые пятна
16 Колесницегонитель
17 Из реки
18 Моя звезда
Код:

Exact Audio Copy V0.99 prebeta 5 from 4. May 2009

EAC extraction logfile from 6. September 2012, 16:52

Вячеслав Бутусов / Новое и лучшее. Star-hit

Used drive  : PIONEER DVD-RW  DVR-212   Adapter: 1  ID: 0

Read mode               : Secure
Utilize accurate stream : Yes
Defeat audio cache      : Yes
Make use of C2 pointers : No

Read offset correction                      : 48
Overread into Lead-In and Lead-Out          : No
Fill up missing offset samples with silence : Yes
Delete leading and trailing silent blocks   : No
Null samples used in CRC calculations       : Yes
Used interface                              : Native Win32 interface for Win NT & 2000

Used output format : Internal WAV Routines
Sample format      : 44.100 Hz; 16 Bit; Stereo

TOC of the extracted CD

     Track |   Start  |  Length  | Start sector | End sector
    ---------------------------------------------------------
        1  |  0:00.00 |  4:00.02 |         0    |    18001
        2  |  4:00.02 |  2:52.58 |     18002    |    30959
        3  |  6:52.60 |  3:14.25 |     30960    |    45534
        4  | 10:07.10 |  5:38.31 |     45535    |    70915
        5  | 15:45.41 |  4:37.09 |     70916    |    91699
        6  | 20:22.50 |  4:30.25 |     91700    |   111974
        7  | 24:53.00 |  2:02.30 |    111975    |   121154
        8  | 26:55.30 |  4:43.61 |    121155    |   142440
        9  | 31:39.16 |  5:29.35 |    142441    |   167150
       10  | 37:08.51 |  3:59.58 |    167151    |   185133
       11  | 41:08.34 |  3:26.52 |    185134    |   200635
       12  | 44:35.11 |  3:21.22 |    200636    |   215732
       13  | 47:56.33 |  3:41.65 |    215733    |   232372
       14  | 51:38.23 |  2:00.34 |    232373    |   241406
       15  | 53:38.57 |  3:01.39 |    241407    |   255020
       16  | 56:40.21 |  3:35.53 |    255021    |   271198
       17  | 60:15.74 |  3:30.60 |    271199    |   287008
       18  | 63:46.59 |  5:08.36 |    287009    |   310144

Range status and errors

Selected range

     Filename M:\FLAC (bruk67)\MP3\Вячеслав Бутусов (Ю-Питер) FLAC\2010 - Новое и лучшее. Star-hit\Вячеслав Бутусов - Новое и лучшее. Star-hit.wav

     Peak level 100.0 %
     Range quality 99.9 %
     Test CRC AC09D333
     Copy CRC AC09D333
     Copy OK

No errors occurred

AccurateRip summary

Track  1  not present in database
Track  2  not present in database
Track  3  not present in database
Track  4  not present in database
Track  5  not present in database
Track  6  not present in database
Track  7  not present in database
Track  8  not present in database
Track  9  not present in database
Track 10  not present in database
Track 11  not present in database
Track 12  not present in database
Track 13  not present in database
Track 14  not present in database
Track 15  not present in database
Track 16  not present in database
Track 17  not present in database
Track 18  not present in database

None of the tracks are present in the AccurateRip database

End of status report
Код:

DON'T MODIFY THIS FILE

-----------------------

PERFORMER: auCDtect Task Manager, ver. 1.6.0 RC1 build 1.6.0.1
Copyright (c) 2008-2010 y-soft. All rights reserved
http://y-soft.org

ANALYZER: auCDtect: CD records authenticity detector, version 0.8.2
Copyright (c) 2004 Oleg Berngardt. All rights reserved.
Copyright (c) 2004 Alexander Djourik. All rights reserved.

FILE: Вячеслав Бутусов - Новое и лучшее. Star-hit.flac
  Size: 486100692 Hash: A46482240B5AF1178216B2B277775D15 Accuracy: -m0
  Conclusion: CDDA 100%
  Signature: 41D615B38CE589B0D9EA60D5E83C78559AA0644A
В сингл "Аделаида" вошли три трека "Аквариума" в исполнении "Ю-Питера". Этот релиз открывает совместный проект kroogi.com и lenta.ru, посвященный 40-летию "Аквариума"
Для трибьюта группа "Ю-Питер" записали две кавер-версии песни "Аделаида" - энергичную и медитативную. Помимо двех версий одноименной песни в сингл вошел трек Аквариума "Рок-н-ролл мертв", записанный "Ю-Питером" в 2003 году для другого трибьюта - "БГ-50".

Аудио кодек: FLAC (*.flac)
Тип рипа: tracks
Битрейт аудио: lossless
Продолжительность: 00:11:14

Трек лист:

01. Аделаида
02. Рок-н-ролл мёртв
03. Аделаида (disco version)
Код:

AUDIOCHECKER v2.0 beta (build 457) - by Dester - opdester@freemail.hu
~~~~~~~~~~~~~~~~~~~~~~~~~~~~~~~~~~

Started at: среда, 01. 05. 2013. - 22:48.14
3 files found

1 -===- M:\FLAC (bruk67)\MP3\Вячеслав Бутусов (Ю-Питер) FLAC\2012 - Аделаида (Single) WEB-релиз\01. Аделаида.flac
  Extracted successfully
  Conclusion: this track is CDDA with probability 58%
  Tempfile successfully deleted.

2 -===- M:\FLAC (bruk67)\MP3\Вячеслав Бутусов (Ю-Питер) FLAC\2012 - Аделаида (Single) WEB-релиз\02. 02. Рок-н-ролл мёртв.flac
  Extracted successfully
  Conclusion: this track is CDDA with probability 100%
  Tempfile successfully deleted.

3 -===- M:\FLAC (bruk67)\MP3\Вячеслав Бутусов (Ю-Питер) FLAC\2012 - Аделаида (Single) WEB-релиз\03. Аделаида (disco version).flac
  Extracted successfully
  Conclusion: this track is MPEG with probability 99%
  Tempfile successfully deleted.

Finished at: среда, 01. 05. 2013. - 22:49.01 (operation time: 0:00.46)
Код:

DON'T MODIFY THIS FILE

-----------------------

PERFORMER: auCDtect Task Manager, ver. 1.6.0 RC1 build 1.6.0.1
Copyright (c) 2008-2010 y-soft. All rights reserved
http://y-soft.org

ANALYZER: auCDtect: CD records authenticity detector, version 0.8.2
Copyright (c) 2004 Oleg Berngardt. All rights reserved.
Copyright (c) 2004 Alexander Djourik. All rights reserved.

FILE: 03. Аделаида (disco version).flac
  Size: 32661467 Hash: E121A2346A72C819FECE8B42D3A7C372 Accuracy: -m0
  Conclusion: MPEG 99%
  Signature: 37B8677DF829FDFD2543D1C459985719A1B968D7
FILE: 02. Рок-н-ролл мёртв.flac
  Size: 29839791 Hash: A5CBE6703CB519CD67450FB212775ACE Accuracy: -m0
  Conclusion: CDDA 100%
  Signature: 7297CBC63BF5BBEBEBD8407095B7EB64148C7002
FILE: 01. Аделаида.flac
  Size: 29367213 Hash: CB9F35841752AD1A50008F0ED1323420 Accuracy: -m0
  Conclusion: CDDA 58%
  Signature: CE7408002E52AF423E5CDF80EC883BFBFA0ACD13
Группа "Ю-Питер" пересекает 10-ти летный рубеж с новой версией песни "10 Шагов"
Аудио кодек: FLAC (*.flac)
Тип рипа: tracks
Битрейт аудио: lossless
Продолжительность: 00:04:51

Трек лист:

01. 10 шагов
Код:

AUDIOCHECKER v2.0 beta (build 457) - by Dester - opdester@freemail.hu
~~~~~~~~~~~~~~~~~~~~~~~~~~~~~~~~~~
Started at: среда, 01. 05. 2013. - 22:39.29
1 file found

1 -===- M:\FLAC (bruk67)\MP3\Вячеслав Бутусов (Ю-Питер) FLAC\2012 - 10 Шагов (Single) WEB-релиз
  Extracted successfully
  Conclusion: this track is CDDA with probability 100%
  Tempfile successfully deleted.

Finished at: среда, 01. 05. 2013. - 22:39.52 (operation time: 0:00.22)
Код:

DON'T MODIFY THIS FILE

-----------------------

PERFORMER: auCDtect Task Manager, ver. 1.6.0 RC1 build 1.6.0.1
Copyright (c) 2008-2010 y-soft. All rights reserved
http://y-soft.org

ANALYZER: auCDtect: CD records authenticity detector, version 0.8.2
Copyright (c) 2004 Oleg Berngardt. All rights reserved.
Copyright (c) 2004 Alexander Djourik. All rights reserved.

FILE: 01. 10 Шагов (Single).flac
  Size: 35617807 Hash: 2493B230443EE1FEEC781C5791763A3C Accuracy: -m0
  Conclusion: CDDA 100%
  Signature: 8105B1983F77D1817DCAB27FE385DB8BCD459ED6
Аудио кодек: FLAC (*.flac)
Тип рипа: tracks
Битрейт аудио: lossless
Продолжительность: 00:02:54

Трек лист:

01. Битва с Магнатом
Код:

AUDIOCHECKER v2.0 beta (build 457) - by Dester - opdester@freemail.hu
~~~~~~~~~~~~~~~~~~~~~~~~~~~~~~~~~~

Started at: среда, 01. 05. 2013. - 22:45.21
1 file found

1 -===- M:\FLAC (bruk67)\MP3\Вячеслав Бутусов (Ю-Питер) FLAC\2012 - Битва с Магнатом (Single) WEB-релиз
  Extracted successfully
  Conclusion: this track is CDDA with probability 100%
  Tempfile successfully deleted.

Finished at: среда, 01. 05. 2013. - 22:45.34 (operation time: 0:00.12)
Код:

DON'T MODIFY THIS FILE

-----------------------

PERFORMER: auCDtect Task Manager, ver. 1.6.0 RC1 build 1.6.0.1
Copyright (c) 2008-2010 y-soft. All rights reserved
http://y-soft.org

ANALYZER: auCDtect: CD records authenticity detector, version 0.8.2
Copyright (c) 2004 Oleg Berngardt. All rights reserved.
Copyright (c) 2004 Alexander Djourik. All rights reserved.

FILE: 01. Битва с Магнатом.flac
  Size: 22192694 Hash: 39CF9EB1C17464AE00C9E935DF3BAAFF Accuracy: -m0
  Conclusion: CDDA 100%
  Signature: BFB250AFEF69442C9E4A52EAEE4930AB226B50C5
В альбом "Ю-11ИТЕР" вошли записи песен с концерта группы «Ю-Питер» 20 декабря 2012 года в БКЗ «Октябрьский» в Санкт-Петербурге, посвящённого десятилетию группы.
Аудио кодек: FLAC (*.flac)
Тип рипа: tracks
Битрейт аудио: lossless
Продолжительность: 00:55:08

Трек лист:

01. Ударная Любовь
02. Сердце камня
03. Десять шагов
04. Израяврай
05. Колесницегонитель
06. Элизобарра-Торр
07. Зверь
08. На берегу
09. Дети минут
10. Князь тишины
11. Триллипут
12. Гибралтар-Лабрадор
Код:

AUDIOCHECKER v2.0 beta (build 457) - by Dester - opdester@freemail.hu
~~~~~~~~~~~~~~~~~~~~~~~~~~~~~~~~~~
Started at: среда, 01. 05. 2013. - 23:06.22
12 files found

01 -===- M:\FLAC (bruk67)\MP3\Вячеслав Бутусов (Ю-Питер) FLAC\2013 - Ю-11ИТЕР (Live) WEB-релиз\ 01. Ударная Любовь.flac
  Extracted successfully
  Conclusion: this track is CDDA with probability 100%
  Tempfile successfully deleted.

02 -===- M:\FLAC (bruk67)\MP3\Вячеслав Бутусов (Ю-Питер) FLAC\2013 - Ю-11ИТЕР (Live) WEB-релиз\ 02. Сердце камня.flac
  Extracted successfully
  Conclusion: this track is CDDA with probability 100%
  Tempfile successfully deleted.

03 -===- M:\FLAC (bruk67)\MP3\Вячеслав Бутусов (Ю-Питер) FLAC\2013 - Ю-11ИТЕР (Live) WEB-релиз\ 03. Десять шагов.flac
  Extracted successfully
  Conclusion: this track is CDDA with probability 100%
  Tempfile successfully deleted.

04 -===- M:\FLAC (bruk67)\MP3\Вячеслав Бутусов (Ю-Питер) FLAC\2013 - Ю-11ИТЕР (Live) WEB-релиз\ 04. Израяврай.flac
  Extracted successfully
  Conclusion: this track is CDDA with probability 100%
  Tempfile successfully deleted.

05 -===- M:\FLAC (bruk67)\MP3\Вячеслав Бутусов (Ю-Питер) FLAC\2013 - Ю-11ИТЕР (Live) WEB-релиз\ 05. Колесницегонитель.flac
  Extracted successfully
  Conclusion: this track is CDDA with probability 100%
  Tempfile successfully deleted.

06 -===- M:\FLAC (bruk67)\MP3\Вячеслав Бутусов (Ю-Питер) FLAC\2013 - Ю-11ИТЕР (Live) WEB-релиз\ 06. Элизобарра-Торр.flac
  Extracted successfully
  Conclusion: this track is CDDA with probability 100%
  Tempfile successfully deleted.

07 -===- M:\FLAC (bruk67)\MP3\Вячеслав Бутусов (Ю-Питер) FLAC\2013 - Ю-11ИТЕР (Live) WEB-релиз\ 07. Зверь.flac
  Extracted successfully
  Conclusion: this track is CDDA with probability 100%
  Tempfile successfully deleted.

08 -===- M:\FLAC (bruk67)\MP3\Вячеслав Бутусов (Ю-Питер) FLAC\2013 - Ю-11ИТЕР (Live) WEB-релиз\ 08. На берегу.flac
  Extracted successfully
  Conclusion: this track is CDDA with probability 100%
  Tempfile successfully deleted.

09 -===- M:\FLAC (bruk67)\MP3\Вячеслав Бутусов (Ю-Питер) FLAC\2013 - Ю-11ИТЕР (Live) WEB-релиз\ 09. Дети минут.flac
  Extracted successfully
  Conclusion: this track is CDDA with probability 100%
  Tempfile successfully deleted.

10 -===- M:\FLAC (bruk67)\MP3\Вячеслав Бутусов (Ю-Питер) FLAC\2013 - Ю-11ИТЕР (Live) WEB-релиз\ 10. Князь тишины.flac
  Extracted successfully
  Conclusion: this track is CDDA with probability 100%
  Tempfile successfully deleted.

11 -===- M:\FLAC (bruk67)\MP3\Вячеслав Бутусов (Ю-Питер) FLAC\2013 - Ю-11ИТЕР (Live) WEB-релиз\ 11. Триллипут.flac
  Extracted successfully
  Conclusion: this track is CDDA with probability 100%
  Tempfile successfully deleted.

12 -===- M:\FLAC (bruk67)\MP3\Вячеслав Бутусов (Ю-Питер) FLAC\2013 - Ю-11ИТЕР (Live) WEB-релиз\ 12. Гибралтар-Лабрадор.flac
  Extracted successfully
  Conclusion: this track is CDDA with probability 100%
  Tempfile successfully deleted.

Finished at: среда, 01. 05. 2013. - 23:10.58 (operation time: 0:04.35)
Код:

DON'T MODIFY THIS FILE

-----------------------

PERFORMER: auCDtect Task Manager, ver. 1.6.0 RC1 build 1.6.0.1
Copyright (c) 2008-2010 y-soft. All rights reserved
http://y-soft.org

ANALYZER: auCDtect: CD records authenticity detector, version 0.8.2
Copyright (c) 2004 Oleg Berngardt. All rights reserved.
Copyright (c) 2004 Alexander Djourik. All rights reserved.

FILE: 12. Гибралтар-Лабрадор.flac
  Size: 35811555 Hash: 947772A4A1E52BD01351F5CE6D5C30B8 Accuracy: -m0
  Conclusion: CDDA 100%
  Signature: D88FB0BF6A17E33E38F712110CDD49D7B0F81BCC
FILE: 11. Триллипут.flac
  Size: 30737298 Hash: FBC8E811EC3B6E162A3949F59F53DFF0 Accuracy: -m0
  Conclusion: CDDA 100%
  Signature: 6948D49879E0B3034109A48FEFF7F40EF78A45F3
FILE: 10. Князь тишины.flac
  Size: 30169359 Hash: F4931EF173AABFBA86BB392984A4B128 Accuracy: -m0
  Conclusion: CDDA 100%
  Signature: 6631B804598DF1AECC1D9AA061457D141137FB45
FILE: 09. Дети минут.flac
  Size: 36735238 Hash: A424E178E882F32157B6D8D9CA5A453B Accuracy: -m0
  Conclusion: CDDA 100%
  Signature: 3DA77FAFBBFA7356A5FF40F3EF1227507882F40D
FILE: 08. На берегу.flac
  Size: 31926257 Hash: 6426A4656B7AF471E3AF04BEEFC15847 Accuracy: -m0
  Conclusion: CDDA 100%
  Signature: 01D5A382193460E039BA8AB91C467D53CE18BFC1
FILE: 07. Зверь.flac
  Size: 50909038 Hash: FABFA13D2E03E0A5977BD6F5D6D9F8FB Accuracy: -m0
  Conclusion: CDDA 100%
  Signature: 655CDF6C963369EA93732ED2DE9C30778F15C937
FILE: 06. Элизобарра-Торр.flac
  Size: 32550089 Hash: 1A38655BF06D5C34B490FBC6F31FC263 Accuracy: -m0
  Conclusion: CDDA 100%
  Signature: B79FF7BFCFEA15930D6DDF6E8EF32D8693605F38
FILE: 05. Колесницегонитель.flac
  Size: 31906670 Hash: 20DE86207E3A078A531F565913514E9E Accuracy: -m0
  Conclusion: CDDA 100%
  Signature: 1B7C10E217E4855FEBEEB56775FBEDB77BF24B21
FILE: 04. Израяврай.flac
  Size: 26442999 Hash: 6FEC584717A0197F45B9A948C17E2019 Accuracy: -m0
  Conclusion: CDDA 100%
  Signature: 62626D01F3872D90CB08823942A19884F5E2934A
FILE: 03. Десять шагов.flac
  Size: 37628093 Hash: 102F890A1B2690CEF35D704B69D2320A Accuracy: -m0
  Conclusion: CDDA 100%
  Signature: 969BDCEABC130FB75DC75B5761101D99EB53F98E
FILE: 02. Сердце камня.flac
  Size: 37134781 Hash: 37590EDBA95C7CF3DDD2F20E072D9749 Accuracy: -m0
  Conclusion: CDDA 100%
  Signature: EBF80E313505E4753226763618A7C960E5F28043
FILE: 01. Ударная Любовь.flac
  Size: 31066185 Hash: C85A4D9BDFC3D6F5934D0F5F5379028C Accuracy: -m0
  Conclusion: CDDA 100%
  Signature: F2A7DFD86B20D873B3DD2B3FC905EACE02A38803


Время раздачи: 24/7 - круглосуточно

Ю-Питер - 10-Питер (2012) WEB [FLAC|Lossless] <Rock>


Поглощение/вытеснение
Только с согласия релизера

J_Man
[NNM-Club.ru]_Vyacheslav Butusov (YU-Piter) FLAC.torrent
 Торрент: Золотая раздача  Зарегистрирован
 

Free Leech
Зарегистрируйтесь и скачайте торрент!
55,4 KB
 Зарегистрирован:   05 Июн 2013 18:17:20
 Размер:   8,42 GB  (
 Рейтинг:   4,9 (Голосов: 80)
 Поблагодарили:   281
 Проверка:   Оформление проверено модератором 05 Июн 2013 23:56:18
Как cкачать  ·  Как раздать  ·  Правильно оформить  ·  Поднять ратио!  

_________________
Исправили раздачу - напишите , указав ссылку на релиз.
Правила и рекомендации по оформлению релизов категории МУЗЫКА [19.02.2017]
akcioner
Стаж: 6 лет 5 мес.
Сообщений: 5
Ratio: 1,561
2.35%
burundi.gif
люди ау встаньте на раздачу
pronav
Стаж: 4 года 2 мес.
Сообщений: 1
27.27%
встаньте на раздачу пожалуйста
krasa​vchik​753​
Стаж: 6 лет
Сообщений: 2
Ratio: 16,449
1.56%
russia.gif
встаньте на раздачу, пожалуйста
Показать сообщения:   
Начать новую тему   Ответить на тему    Торрент-трекер NNM-Club -> Rock, Alternative, Punk, Metal -> Русский Рок (Lossless) Часовой пояс: GMT + 3
Страница 1 из 1