Классический форум-трекер
canvas not supported
Нас вместе: 4 064 988

Эндрю Ллойд Уэббер - Любовь не умрёт никогда / Andrew Lloyd Webber - Love Never Dies (2011) BDRip


 
 
RSS
Начать новую тему   Ответить на тему    Торрент-трекер NNM-Club -> Театр и Музыкальное видео -> Опера, Балет, Мюзиклы
Автор Сообщение
Николай Анатольевич ®
   
Почетный релизер
 
Стаж: 8 лет 11 мес.
Сообщений: 46532
Ratio: 10,321
Раздал: 7,411 TB
Поблагодарили: 2579245
100%
estonia.gif
Эндрю Ллойд Уэббер - Любовь не умрёт никогда (2011) BDRip
Andrew Lloyd Webber - Love Never Dies

Русское название: Эндрю Ллойд Уэббер - Любовь не умрёт никогда
Оригинальное название: Andrew Lloyd Webber - Love Never Dies
Год выпуска: 2011
Производство: Австралия, Universal
Жанр: Мюзикл, мелодрама
Перевод: Оригинальный
Субтитры: Русские

Режиссер: Саймон Филлипс, Бретт Салливан
Композитор: Эндрю Ллойд Уэббер
Исполнители: Бен Льюис, Анна О`Берн, Мария Мерседес, Саймон Глисон, Шерон Миллерчип, Эмма Джей Хоукинс, Пол Табоун, Дин Винс, Джек Лайол

Описание фильма:
Сиквел мюзикла Эндрю Ллойда Уэббера «Призрак Оперы». Действие мюзикла происходит в 1907 году, по утверждению композитора — примерно десять лет после конца оригинального «Призрака». Оперная певица Кристина Дае приглашена выступить в парке развлечений «Фантазма» на Кони-Айленде анонимным импресарио и, приняв предложение, вместе с мужем Раулем и сыном Густавом отправляется в Бруклин, не догадываясь, что таинственный импрессарио, способствующий её появлению на популярном морском курорте — Фантом... Запись сделана в сентябре 2011 года, в театре Риджент, Мельбурн, Австралия.

Продолжительность: 02:01:03
Качество видео: BDRip

Видеокодек: XviD
Битрейт видео: 2121 Кбит/с
Размер кадра: 704x304
Аудио: Английский, АС3, 6 ch, 448 Кбит/с
    Бен Льюис (Ben Lewis) - Призрак, владелец парка развлечений «Фантазма»
    Анна О'Бёрн (Anna O'Byrne) - Кристина Дае, мировая оперная звезда и мать
    Мария Мерседес (Maria Mercedes) - Мадам Жири, балетмейстер Оперы
    Саймон Глисон (Simon Gleeson) - Виконт Рауль де Шаньи, теперь картежник и пьяница
    Шерон Миллерчип (Sharon Millerchip) - Мег Жири, водевильная певица
    Эмма Джей Хоукинс (Emma J. Hawkins) - Флэк, воздушная акробатка
    Пол Табоун (Paul Tabone) - Кувалда, сильный, татуированный человек
    Дин Винс (Dean Vince) - Гэнгл, зазывала
    Джек Лайол (Jack Lyall) - Густав, сын Призрака
    2010 BroadwayWorld UK Award. Награды: 8, номинации: 1
    2011 Laurence Olivier Award. Номинации: 7
    2011 WhatsOnStage.com Award. Награды: 2, номинации: 3
    2011 Helpmann Award. Награды: 3
Общее
Полное имя : F:\Раздачи\Andrew Lloyd Webber - Love Never Dies (2011) BDRip\Webber-Love.Never.Dies.2011.XviD.BDRip.avi
Формат : AVI
Формат/Информация : Audio Video Interleave
Профиль формата : OpenDML
Размер файла : 2,18 Гбайт
Продолжительность : 2 ч. 1 м.
Общий поток : 2580 Кбит/сек
Название фильма : Andrew Lloyd Webber - Love Never Dies
Режиссёр : Rip by MC
Жанр : Musical
Программа кодирования : VirtualDubMod 1.5.10.3 | www.virtualdub-fr.org || (build 2550/release)
Формат оригинала/Имя : Music Video
Примечание : www.kinozal.tv

Видео
Идентификатор : 0
Формат : MPEG-4 Visual
Профиль формата : Advanced Simple@L5
Параметр BVOP формата : 2
Параметр QPel формата : Нет
Параметр GMC формата : Без точки перехода
Параметр матрицы формата : Default (MPEG)
Идентификатор кодека : XVID
Идентификатор кодека/Подсказка : XviD
Продолжительность : 2 ч. 1 м.
Битрейт : 2121 Кбит/сек
Ширина : 704 пикселя
Высота : 304 пикселя
Соотношение сторон : 2,35:1
Частота кадров : 23,976 кадра/сек
Цветовое пространство : YUV
Субдискретизация насыщенности : 4:2:0
Битовая глубина : 8 бит
Тип развёртки : Прогрессивная
Метод сжатия : С потерями
Бит/(Пиксели*Кадры) : 0.413
Размер потока : 1,79 Гбайт (82%)
Библиотека кодирования : XviD 64

Аудио
Идентификатор : 1
Формат : AC-3
Формат/Информация : Audio Coding 3
Расширение режима : CM (complete main)
Идентификатор кодека : 2000
Продолжительность : 2 ч. 1 м.
Вид битрейта : Постоянный
Битрейт : 448 Кбит/сек
Каналы : 6 каналов
Расположение каналов : Front: L C R, Side: L R, LFE
Частота : 48,0 КГц
Битовая глубина : 16 бит
Метод сжатия : С потерями
Размер потока : 388 Мбайт (17%)
Выравнивание : Разделение по промежуткам
Продолжительность промежутка : 42 мс. (1,00 видеокадр)
Время предзагрузки промежутка : 500 мс.

Общее
Полное имя : F:\Раздачи\Andrew Lloyd Webber - Love Never Dies (2011) BDRip\Webber-Love.Never.Dies.2011.XviD.BDRip.srt
Формат : SubRip
Размер файла : 94,4 Кбайт

Текст
Формат : SubRip
Метод сжатия : Без потерь
Скриншоты:


Время раздачи: 9.00 - 23.00 (по мере возможности...)
[NNM-Club.ru]_Andrew Lloyd Webber - Love Never Dies (2011) BDRip.torrent
 Торрент: Платиновая раздача  Зарегистрирован
 
Скачать


Примагнититься
 Зарегистрирован:   19 Фев 2012 07:47:33
 Размер:   2,18 GB  (
 Рейтинг:   4,7 (Голосов: 21)
 Поблагодарили:   96
 Проверка:   Оформление проверено модератором 19 Фев 2012 14:51:18
Как cкачать  ·  Как раздать  ·  Правильно оформить  ·  Поднять ратио!  
sentinel2727
Стаж: 11 лет 9 мес.
Сообщений: 4381
Ratio: 105,085
Поблагодарили: 30802
100%
Откуда: Odessa
ukraine.gif
Andrew Lloyd Webber - Love Never Dies [2CD] (2010) [FLAC|Lossless]<Musical>
restorator
Стаж: 11 лет 9 мес.
Сообщений: 111
Ratio: 7,701
Поблагодарили: 407
100%
ussr.gif
Вот вы какой, однако:) Всё радуете и радуете:) Спасибо
Николай Анатольевич ®
   
Почетный релизер
 
Стаж: 8 лет 11 мес.
Сообщений: 46532
Ratio: 10,321
Раздал: 7,411 TB
Поблагодарили: 2579245
100%
estonia.gif
restorator
Вам спасибо и приятного просмотра :приветствую:
Дина Пэрри
Стаж: 8 лет 4 мес.
Сообщений: 13
Ratio: 5,108
100%
Ни у кого нет оригинальной Лондонской постановки?(
mister rock
Стаж: 5 лет 1 мес.
Сообщений: 16
Ratio: 17,66
100%
Помогите скачать!
Показать сообщения:   
Начать новую тему   Ответить на тему    Торрент-трекер NNM-Club -> Театр и Музыкальное видео -> Опера, Балет, Мюзиклы Часовой пояс: GMT + 3
Страница 1 из 1