Классический форум-трекер
canvas not supported
Нас вместе: 4 079 489

Отбросы / Плохие / Долбанутые / Misfits (2009) BDRip [720p] (Сезон 1, серии 1-6 из 6) [Novamedia, Кубик в кубе, MTV]


 
 
RSS
Начать новую тему   Ответить на тему    Торрент-трекер NNM-Club -> Зарубежные сериалы -> Отбросы / Misfits
Автор Сообщение
j_84 ®
Uploaders
 
Стаж: 10 лет 9 мес.
Сообщений: 280
Ratio: 263,582
Раздал: 75,14 TB
Поблагодарили: 10572
100%
Откуда: Крым, детка
pirates.png
Отбросы / Плохие / Долбанутые / Misfits (2009) BDRip [720p] (Сезон 1, серии 1-6 из 6) [Novamedia, Кубик в кубе, MTV]
Год выпуска: 2009
Производство: Великобритания
Слоган: «When five young outsiders on community service get caught in a strange storm they soon realise they have developed superpowers.»
Жанр: Фантастика, Фэнтези, Драма, Комедия
Перевод: Многоголосый закадровый, профессиональный



Дата мировой премьеры: 12.11.2009
Дата российской премьеры: 30.10.2010
Дата выхода DVD/Blu-Ray релиза: 28.04.2011

Режиссер:
Том Грин, Том Харпер, Чина Му-Ен, Оуэн Харрис, Джонатан ван Тюллекен, Алекс Гарсиа, Вейн Йип
Актеры:
Роберт Шиэн, Иван Реон, Лорен Соша, Антония Томас, Натан Стюарт-Джарретт, Алекс Рид, Рут Негга, Крэйг Паркинсон, Майкл Обиора, Анна Коваль

Описание фильма:
Келли, Натан, Кёртис, Алиша и Саймон выполняют общественные работы за совершение мелких преступлений. Они — не друзья. Более того, у них нет ничего общего. В группе постоянно происходят конфликты, споры и драки. Но в удивительный день во время сильного шторма сильная молния делает из них супергероев и наделяет их сверхвозможностями. Они понятия не имеют, что делать с этими сверхвозможностями. Более того, никто из них не рад своей новой силе, потому что она раскрывает их самые глубокие комплексы и тайны, которые бы они не хотели выставлять напоказ. Например, Келли, озабоченная общественным мнением о себе, получает способность читать чужие мысли, а у Кёртиса появляется способность возвращать прошлое. Ребята просто хотят побыстрее закончить свои исправительные работы и окунуться с головой в обычную жизнь тинейджеров. Но судьба им припасла еще одно задание, ведь после ужасного шторма в городе сверхспособностями стали обладать не только они одни…
- Сохранены оригинальные чаптеры как на BluRay.
- Дорожки #1 и #2 содержат больше количество ненормативной лексики.
- Дорожка #3 с DVD R5, перевод цензурный.
- В 2010 году сериал выиграл престижную награду BAFTA в номинации «Лучший Драматический сериал».
- Сам сериал и его сценарист Говард Оверман были номинированы на награду RTS в марте 2010.
Формат : Matroska
Версия формата : Version 2
Размер файла : 2,02 Гбайт
Продолжительность : 45 м.
Общий поток : 6325 Кбит/сек
Название фильма : Misfits (2009) S01E01 - Release for HDCLUB by Pro_Rock_
Дата кодирования : UTC 2011-07-04 16:01:56
Программа кодирования : mkvmerge v4.8.0 ('I Got The...') built on May 24 2011 03:12:58
Библиотека кодирования : libebml v1.2.0 + libmatroska v1.1.0

Видео
Идентификатор : 1
Формат : AVC
Формат/Информация : Advanced Video Codec
Профиль формата : High@L4.1
Параметр CABAC формата : Да
Параметр ReFrames формата : 9 кадров
Идентификатор кодека : V_MPEG4/ISO/AVC
Продолжительность : 45 м.
Битрейт : 5500 Кбит/сек
Ширина : 1280 пикселей
Высота : 720 пикселей
Соотношение сторон : 16:9
Частота кадров : 25,000 кадров/сек
Цветовое пространство : YUV
Субдискретизация насыщенности : 4:2:0
Битовая глубина : 8 бит
Тип развёртки : Прогрессивная
Бит/(Пиксели*Кадры) : 0.239
Размер потока : 1,71 Гбайт (85%)
Заголовок : Misfits (2009) S01E01 - Release for HDCLUB by Pro_Rock_
Библиотека кодирования : x264 core 114 r1900 60ef1f8
Настройки программы : cabac=1 / ref=9 / deblock=1:-3:-3 / analyse=0x3:0x113 / me=umh / subme=9 / psy=1 / psy_rd=1.00:0.00 / mixed_ref=1 / me_range=32 / chroma_me=1 / trellis=1 / 8x8dct=1 / cqm=0 / deadzone=21,11 / fast_pskip=0 / chroma_qp_offset=-2 / threads=18 / sliced_threads=0 / nr=0 / decimate=0 / interlaced=0 / constrained_intra=0 / bframes=6 / b_pyramid=2 / b_adapt=1 / b_bias=0 / direct=1 / weightb=1 / open_gop=0 / weightp=2 / keyint=250 / keyint_min=25 / scenecut=40 / intra_refresh=0 / rc_lookahead=40 / rc=2pass / mbtree=1 / bitrate=5500 / ratetol=1.0 / qcomp=0.60 / qpmin=0 / qpmax=69 / qpstep=4 / cplxblur=20.0 / qblur=0.5 / ip_ratio=1.40 / aq=1:0.80
Язык : English
Default : Да
Forced : Нет

Аудио #1
Идентификатор : 2
Формат : AC-3
Формат/Информация : Audio Coding 3
Расширение режима : CM (complete main)
Идентификатор кодека : A_AC3
Продолжительность : 45 м.
Вид битрейта : Постоянный
Битрейт : 192 Кбит/сек
Каналы : 2 канала
Расположение каналов : Front: L R
Частота : 48,0 КГц
Битовая глубина : 16 бит
Метод сжатия : С потерями
Размер потока : 62,6 Мбайт (3%)
Заголовок : AC3 2.0 @ 192 kbps - трехголосый закадровый (Новамедиа)
Язык : Russian
Default : Да
Forced : Нет

Аудио #2
Идентификатор : 3
Формат : AC-3
Формат/Информация : Audio Coding 3
Расширение режима : CM (complete main)
Идентификатор кодека : A_AC3
Продолжительность : 45 м.
Вид битрейта : Постоянный
Битрейт : 224 Кбит/сек
Каналы : 2 канала
Расположение каналов : Front: L R
Частота : 48,0 КГц
Битовая глубина : 16 бит
Метод сжатия : С потерями
Размер потока : 73,1 Мбайт (4%)
Заголовок : AC3 2.0 @ 224 kbps - двухголосый закадровый (Кубик в Кубе)
Язык : Russian
Default : Нет
Forced : Нет

Аудио #3
Идентификатор : 4
Формат : AC-3
Формат/Информация : Audio Coding 3
Расширение режима : CM (complete main)
Идентификатор кодека : A_AC3
Продолжительность : 45 м.
Вид битрейта : Постоянный
Битрейт : 224 Кбит/сек
Каналы : 2 канала
Расположение каналов : Front: L R
Частота : 48,0 КГц
Битовая глубина : 16 бит
Метод сжатия : С потерями
Размер потока : 73,1 Мбайт (4%)
Заголовок : AC3 2.0 @ 224 kbps - многоголосый закадровый (R5, MTV)
Язык : Russian
Default : Нет
Forced : Нет

Аудио #4
Идентификатор : 5
Формат : AC-3
Формат/Информация : Audio Coding 3
Расширение режима : CM (complete main)
Идентификатор кодека : A_AC3
Продолжительность : 45 м.
Вид битрейта : Постоянный
Битрейт : 192 Кбит/сек
Каналы : 2 канала
Расположение каналов : Front: L R
Частота : 48,0 КГц
Битовая глубина : 16 бит
Метод сжатия : С потерями
Размер потока : 62,6 Мбайт (3%)
Заголовок : AC3 2.0 @ 192 kbps
Язык : English
Default : Нет
Forced : Нет

Текст #1
Идентификатор : 6
Формат : UTF-8
Идентификатор кодека : S_TEXT/UTF8
Идентификатор кодека/Информация : UTF-8 Plain Text
Язык : Russian
Default : Нет
Forced : Нет

Текст #2
Идентификатор : 7
Формат : UTF-8
Идентификатор кодека : S_TEXT/UTF8
Идентификатор кодека/Информация : UTF-8 Plain Text
Язык : Ukrainian
Default : Нет
Forced : Нет

Текст #3
Идентификатор : 8
Формат : UTF-8
Идентификатор кодека : S_TEXT/UTF8
Идентификатор кодека/Информация : UTF-8 Plain Text
Язык : English
Default : Нет
Forced : Нет

Меню
00:00:00.000 : en:00:00:00.000
00:08:06.400 : en:00:08:06.400
00:16:01.560 : en:00:16:01.560
00:24:02.840 : en:00:24:02.840
00:30:27.920 : en:00:30:27.920
00:38:29.080 : en:00:38:29.080
Продолжительность: 00:45 мин серия
Качество видео: BDRip
Видеокодек: MPEG-4 AVC/H.264
Битрейт видео: ~5500 kb/s
Размер кадра: 1280 х 720
Аудио #1 Rus: AC3, 2.0 ch, 48 kHz, 192 kb/s |Многоголосый закадровый, Новамедиа|
Аудио #2 Rus: AC3, 2.0 ch, 48 kHz, 224 kb/s |Двухголосый закадровый, Кубик в кубе|
Аудио #3 Rus: AC3, 2.0 ch, 48 kHz, 224 kb/s |Многоголосый закадровый, MTV ,R5|
Аудио #4 Eng: AC3, 2.0 ch, 48 kHz, 192 kb/s |Оригинал|
Субтитры: Russian, Ukrainian, English

Все раздачи сериала на трекере
Скриншоты:


Время раздачи: с 18:00 до 24:00
[NNM-Club.ru]_Misfits.S01.720p.BluRay.3xRus.Eng.torrent
 Торрент: Платиновая раздача  Зарегистрирован
 
Скачать


 Зарегистрирован:   11 Фев 2012 02:42:17
 Размер:   12,1 GB  (
 Рейтинг:   4,7 (Голосов: 72)
 Поблагодарили:   184
 Проверка:   Оформление проверено модератором 11 Фев 2012 14:15:49
Как cкачать  ·  Как раздать  ·  Правильно оформить  ·  Поднять ратио!  
Digniori
Стаж: 6 лет 8 мес.
Сообщений: 67
Ratio: 4,358
Поблагодарили: 156
12.5%
russia.gif
Обожаю перевод Кубика :стеб:
MirDA
Стаж: 9 лет 5 мес.
Сообщений: 6
Ratio: 17,899
100%
russia.gif
Спасибо, качество это харашо=) Тоже остаюсь на раздаче
Doktop1
Стаж: 7 лет 1 мес.
Сообщений: 144
Ratio: 33,202
100%
Откуда: Россия, Санкт-Петербург
russia.gif
Товарищи! Это самое прекрасное качество, что я встречал на сайте. Ура! Надеюсь, через пару лет ВСЕ релизы будут такими тяжелыми. Когда сериал может не нравится, но картинка такая, что отвлечься. Реальный блю рэй.
markeley
Стаж: 7 лет 7 мес.
Сообщений: 5
Ratio: 0,709
2.82%
спасибо за релиз, почему-то 1 сезон тяжело было найти на других трекерах, а тут еще и в таком качестве.
authority_com
Стаж: 6 лет 8 мес.
Сообщений: 3
Ratio: 7,249
100%
russia.gif
дайте пожалуйста раздачууу!!!!!
Показать сообщения:   
Начать новую тему   Ответить на тему    Торрент-трекер NNM-Club -> Зарубежные сериалы -> Отбросы / Misfits Часовой пояс: GMT + 3
Страница 1 из 1