Классический форум-трекер
canvas not supported
Нас вместе: 4 078 282

Отбросы / Плохие / Долбанутые / Misfits (2011) HDTVRip (Сезон 3, Серии 1-7 из 8) [Кубик в Кубе]


 
 
RSS
Начать новую тему   Ответить на тему    Торрент-трекер NNM-Club -> Зарубежные сериалы -> Отбросы / Misfits
Автор Сообщение
hdsh ®
ИгроКлуб
Стаж: 6 лет 11 мес.
Сообщений: 1677
Ratio: 36,627
Поблагодарили: 194932
100%
Откуда: Seito
italy.gif
Отбросы / Плохие / Долбанутые / Misfits (2011) HDTVRip (Сезон 3, Серии 1-7 из 8) [Кубик в Кубе]
Год выпуска: 2011
Производство: Великобритания
Жанр: Комедия, Фантастика

Сезон: 3
Продолжительность: ~ 00:45:00 минут серия

Перевод: Профессиональный двухголосый закадровый - Кубик в кубе
Субтитры: Отсутствуют

Режиссер: Том Грин, Том Харпер
Актеры: Иван Реон, Лорен Соча, Натан Стюарт-Джарретт, Антония Томас, Роберт Шиэн

Описание фильма:
Пятерых неудачников, трудящихся на общественных работах, во время разразившегося шторма поражает молнией, после чего они замечают, что с ними что-то не так. Жесткая Келли (Лорен Соча) внезапно начала слышать мысли людей, пристыженный спортивный герой Кёртис (Нейтан Стюарт-Джарретт) обнаруживает, что у него есть способность повернуть время вспять, когда он о чем-либо сожалеет, тусовщица Алиша (Антония Томас) может вызывать у человека сексуальное безумство одним прикосновением. Даже крайне застенчивый Саймон (Иван Реон) может сделать себя невидимым, когда он чувствует, что его игнорируют окружающие, и именно этот факт не дает покоя самоуверенному Нейтану (Роберт Шиэн), который в будущем поймёт что он бессмертный. Вместо восхищения герои постепенно понимают, что все эти новые сверхспособности, которые им не особо то были и нужны, не дар свыше, а тяжелая ноша, приносящая душевную боль в их и так не очень успешные жизни.
Релиз группа:
Внимание: Сериал содержит ненормативную лексику

Качество: HDTVRip
Видео: MPEG-4 Visual at 1 484 Kbps 624 x 352 (1.773) at 25.000 fps
Аудио Rus: MPEG Audio at 224 Kbps 2 channels, 48.0 KHz
Аудио Eng: MPEG Audio at 128 Kbps 2 channels, 48.0 KHz
General
Complete name : B:\cosio uno\Kybik v Kybe\Misfits Season 3 Kybik v Kybe\Misfits.s03e02.rus.eng.Kybik.v.Kybe.avi
Format : AVI
Format/Info : Audio Video Interleave
File size : 627 MiB
Duration : 47mn 28s
Overall bit rate mode : Variable
Overall bit rate : 1 848 Kbps
Writing application : VirtualDubMod 1.5.10.2 (build 2540/release)
Writing library : VirtualDubMod build 2540/release

Video
ID : 0
Format : MPEG-4 Visual
Format profile : Advanced Simple@L5
Format settings, BVOP : 2
Format settings, QPel : No
Format settings, GMC : No warppoints
Format settings, Matrix : Default (H.263)
Codec ID : XVID
Codec ID/Hint : XviD
Duration : 47mn 28s
Bit rate : 1 484 Kbps
Width : 624 pixels
Height : 352 pixels
Display aspect ratio : 16:9
Frame rate : 25.000 fps
Color space : YUV
Chroma subsampling : 4:2:0
Bit depth : 8 bits
Scan type : Progressive
Compression mode : Lossy
Bits/(Pixel*Frame) : 0.270
Stream size : 504 MiB (80%)
Writing library : XviD 1.2.1 (UTC 2008-12-04)

Audio #1
ID : 1
Format : MPEG Audio
Format version : Version 1
Format profile : Layer 3
Codec ID : 55
Codec ID/Hint : MP3
Duration : 47mn 28s
Bit rate mode : Constant
Bit rate : 224 Kbps
Channel(s) : 2 channels
Sampling rate : 48.0 KHz
Compression mode : Lossy
Stream size : 76.1 MiB (12%)
Alignment : Aligned on interleaves
Interleave, duration : 40 ms (1.00 video frame)
Interleave, preload duration : 504 ms

Audio #2
ID : 2
Format : MPEG Audio
Format version : Version 1
Format profile : Layer 3
Mode : Joint stereo
Mode extension : MS Stereo
Codec ID : 55
Codec ID/Hint : MP3
Duration : 47mn 28s
Bit rate mode : Variable
Bit rate : 128 Kbps
Channel(s) : 2 channels
Sampling rate : 48.0 KHz
Compression mode : Lossy
Stream size : 41.4 MiB (7%)
Alignment : Aligned on interleaves
Interleave, duration : 24 ms (0.60 video frame)
Interleave, preload duration : 519 ms
Writing library : LAME3.98r
Encoding settings : -m j -V 4 -q 2 -lowpass 17 --abr 128


Сериал "Отбросы" на трекере NNM-Club:
Время раздачи: По мере возможности...
Не забываем говорить
[NNM-Club.ru]_Misfits Season 3 Kybik v Kybe.torrent
 Торрент: Платиновая раздача  Зарегистрирован
 
Скачать


 Зарегистрирован:   15 Дек 2011 08:52:16
 Размер:   4,11 GB  (
 Рейтинг:   4,8 (Голосов: 118)
 Поблагодарили:   320
 Проверка:   Оформление проверено модератором 18 Дек 2011 02:45:22
Как cкачать  ·  Как раздать  ·  Правильно оформить  ·  Поднять ратио!  
serepan9i
Стаж: 8 лет 7 мес.
Сообщений: 6
Ratio: 3,554
49.02%
russia.gif
Спасибо огромное ,,,
BerserkerRR
Стаж: 11 лет 3 мес.
Сообщений: 221
Ratio: 114,57
Поблагодарили: 74
100%
Откуда: Москва, Иваново
russia.gif
7-я серия ЖИР! По полу катался и ржал 8)))
bioshock2012
Стаж: 7 лет 7 мес.
Сообщений: 12
Ratio: 4,11
76.92%
Спасибо!!!!!!!!!!!!!!!!! :супер!:
octav
Стаж: 7 лет 8 мес.
Сообщений: 3
Ratio: 0,574
5.66%
и от меня !)
Jio345
Стаж: 7 лет 10 мес.
Сообщений: 30
Ratio: 5,558
100%
7 серия ржака 8)
будем ждать естчЁ, огромное человеческое спасибо за раздачи :))))
BvzBvzBvz
Стаж: 7 лет 3 мес.
Сообщений: 296
Ratio: 2,3
Поблагодарили: 647
100%
brazil.gif
дайте скачать плиз!!!
Показать сообщения:   
Начать новую тему   Ответить на тему    Торрент-трекер NNM-Club -> Зарубежные сериалы -> Отбросы / Misfits Часовой пояс: GMT + 3
Страница 1 из 1