Интеллигентный торрент-трекер
canvas not supported
Нас вместе: 4 331 365

Бог Богов Махадев / Devon Ke Dev Mahadev (2011) WEB-DLRip [H.264] (820 серий) [MP4|640x480] [IN / RU Sub]


Страницы:  1, 2, 3  След. 
 
RSS
Начать новую тему   Ответить на тему    Торрент-трекер NNM-Club -> Мультимедиа и прочее -> Мобильное Видео
Автор Сообщение
taurired ®
Стаж: 5 лет 10 мес.
Сообщений: 6
Ratio: 49,511
Поблагодарили: 574
100%
ussr.gif
Бог Богов Махадев (Devon Ke Dev Mahadev) / (820 серий) (2011) WEB-DLRip
Производство: Индия
Жанр: Драма, Семейный, Приключения, Фэнтези

Перевод: Отсутствует
Вид субтитров: Отдельным файлом
Язык субтитров: Русский

Режиссер: Маниш Сингх (Manish Singh), Нихил Синха (Nikhil Sinha)
Актеры: Махит Райна, Моуни Рой, Арун Бали, Прабхат Бхаттачария, Ахсаас Чанна, Шайлеш Датар, Панкадж Дхир и другие.

Описание фильма:
Основу сюжета составляют легенды о Шиве, взятые из сакральных текстов индуизма, в основном из Пуран.


Продолжительность: ~00:20:00 серия
Качество видео: WEB-DLRip

Видеокодек: MPEG-4 AVC/H.264
Битрейт видео: ~1000 Кбит/сек
Размер кадра: 640x480
Аудиокодек: AAC, 2 канала
Битрейт аудио: ~125 Кбит/сек
Complete name : Z:\Volumes\Backup#2\tempTorrent\Mahadev\Devon.Ke.Dev.Mahadev.e001.mp4
Format : MPEG-4
Format profile : Base Media / Version 2
Codec ID : mp42
File size : 411 MiB
Duration : 50mn 54s
Overall bit rate mode : Variable
Overall bit rate : 1 129 Kbps
Encoded date : UTC 2012-01-18 11:16:13
Tagged date : UTC 2012-01-18 11:16:13

Video
ID : 1
Format : AVC
Format/Info : Advanced Video Codec
Format profile : Main@L4.0
Format settings, CABAC : Yes
Format settings, ReFrames : 8 frames
Format settings, GOP : M=4, N=15
Codec ID : avc1
Codec ID/Info : Advanced Video Coding
Duration : 50mn 54s
Bit rate mode : Constant
Bit rate : 1 000 Kbps
Width : 640 pixels
Height : 480 pixels
Display aspect ratio : 4:3
Frame rate mode : Constant
Frame rate : 25.000 fps
Color space : YUV
Chroma subsampling : 4:2:0
Bit depth : 8 bits
Scan type : Progressive
Bits/(Pixel*Frame) : 0.130
Stream size : 364 MiB (89%)
Language : English
Encoded date : UTC 2012-01-18 11:16:13
Tagged date : UTC 2012-01-18 11:16:13
Color range : Limited

Audio
ID : 2
Format : AAC
Format/Info : Advanced Audio Codec
Format profile : LC
Codec ID : 40
Duration : 50mn 54s
Bit rate mode : Variable
Bit rate : 125 Kbps
Maximum bit rate : 576 Kbps
Channel(s) : 2 channels
Channel positions : Front: L R
Sampling rate : 48.0 KHz
Compression mode : Lossy
Stream size : 45.7 MiB (11%)
Language : English
Encoded date : UTC 2012-01-18 11:16:13
Tagged date : UTC 2012-01-18 11:16:13
копия того что выложено "в облаке" в соответствующий группе во ВКонтакте.
субтитры до (пока) 641 серии

к администрации группы ВКонтакте которая занимается переводом я отношения НЕ имею, все благодарности какой это хороший сериал и как хорошо он переведен - к ним. Часть оформления - скопирована из их материалов.
[url]Бог Богов Махадев / Девон Ке Дев Махадев / Devon Ke Dev Mahadev (2011) DVDRip (Сезон 1, Серия 1-9 из 417)[/url] - в моей раздаче значительно больше серий чем в этой
Скриншоты:


Время раздачи: 24/7
[NNM-Club.me]_mahadev_initial.torrent
 Торрент: Платиновая раздача  Зарегистрирован
 
Примагнититься

Скачать
 Зарегистрирован:   07 Фев 2015 07:55:10
 Размер:   141 GB  (
 Рейтинг:   4,8 (Голосов: 228)
 Поблагодарили:   499
 Проверка:   Оформление проверено модератором 07 Фев 2015 22:07:47
Как cкачать  ·  Как раздать  ·  Правильно оформить  ·  Поднять ратио!  
a1bert85
Стаж: 6 лет 11 мес.
Сообщений: 56
Ratio: 40,978
Поблагодарили: 357
100%
Откуда: Новос​ибирс​к​
russia.gif
О нет какие эпические хари... в течении 820! серий
AlexVan
Стаж: 7 лет 2 мес.
Сообщений: 4
Ratio: 94,318
82.68%
ussr.gif
636 и 637 серий нет :(
MrA1RW0RM
Стаж: 4 года 6 мес.
Сообщений: 51
Ratio: 12,441
18.87%
russia.gif
Пасибо, забираем!
treex2014
Стаж: 2 года 7 мес.
Сообщений: 1
Ratio: 7,418
0%
СИЛЬНО
kuropval68
Стаж: 2 года 3 мес.
Сообщений: 1
100%
Ну и как разобраться, если нужно скачать определенные серии? Например я бьюсь ни один день мне нужно 530 по 597 серии. На трекере не пронумерованы. Пробовала всякие варианты вплоть до 47 кб скачивала из середины, никак не поймать. Подскажите кто может.
Для меня это очень важный сериал Бог богов Махадев.
ElGato-KOT
Стаж: 5 лет 4 мес.
Сообщений: 6
Ratio: 34,139
Поблагодарили: 5
35.27%
kuropval68 писал(а): Перейти к сообщению
Ну и как разобраться, если нужно скачать определенные серии? Например я бьюсь ни один день мне нужно 530 по 597 серии.

Если сериал очень важен и бьетесь не один день, тогда может выкачать его весь? Потратили бы пару дней, потом удалили бы лишнее.
amsandr
Стаж: 6 лет 10 мес.
Сообщений: 4
Ratio: 1,767
17.86%
russia.gif
один из самых лучших просветительных сериалов современности для (нравственного) ума и для (нравственной) души
ElGato-KOT
Стаж: 5 лет 4 мес.
Сообщений: 6
Ratio: 34,139
Поблагодарили: 5
35.27%
Вот спасибки. А субтитры накопились за те недели, что мы тебя ждали )))
AlexVan
Стаж: 7 лет 2 мес.
Сообщений: 4
Ratio: 94,318
82.68%
ussr.gif
в 244 субтитры не совпадают
brv-777
Стаж: 3 года 4 мес.
Сообщений: 1
15.38%
Благо-дарю!
Volsh​ebnik​666​
Стаж: 2 года 7 мес.
Сообщений: 1
Раздал: 368 GB
42.86%
Спасибо за раздачу.
sunilovich
Стаж: 5 лет 11 мес.
Сообщений: 1
Ratio: 13,936
0.7%
india.gif
Это сериал полностью? Здесь все серии?
zibroid
Стаж: 6 лет 10 мес.
Сообщений: 13
Ratio: 5,224
5%
AlexVan писал(а): Перейти к сообщению
в 244 субтитры не совпадают


Да, все верно, субтитры не совпадали из за того, что вначале проигрывался конец предыдущей серии. Пришлось подрезать серию.

Добавлено спустя 4 минуты 37 секунд:

Да, здесь все серии и уже все переведены, можно скачать субтитры с облака.
Там же можно скачать 636 и 637 серии недостающие в этой раздаче.
Ссылки не могу дать, потому что цензура кругом.(
Gli4
Стаж: 7 лет 1 мес.
Сообщений: 14
Ratio: 54,459
100%
Будет ли дублироваться или так и оставят с субтитрами?
Показать сообщения:   
Начать новую тему   Ответить на тему    Торрент-трекер NNM-Club -> Мультимедиа и прочее -> Мобильное Видео Часовой пояс: GMT + 3
Страницы:  1, 2, 3  След.
Страница 1 из 3