Интеллигентный торрент-трекер
canvas not supported
Нас вместе: 4 140 651

Отбросы / Долбанутые / Плохие / Misfits (2012) Web-DLRip 720p [Полный 4 сезон] (Кубик в кубе, NovaFilm)


 
 
RSS
Начать новую тему   Ответить на тему    Торрент-трекер NNM-Club -> Зарубежные сериалы -> Отбросы / Misfits
Автор Сообщение
j_84 ®
Uploaders
 
Стаж: 10 лет 3 мес.
Сообщений: 277
Ratio: 251,426
Раздал: 71,11 TB
Поблагодарили: 10509
100%
Откуда: Крым, детка
pirates.png
Отбросы / Долбанутые / Плохие / Misfits (2012) Web-DLRip 720p [Полный 4 сезон] (Кубик в кубе, NovaFilm)
Русское название: Отбросы / Долбанутые / Плохие
Оригинальное название: Misfits
Год выпуска: 2012
Производство: Великобритания
Слоган: «When five young outsiders on community service get caught in a strange storm they soon realise they have developed superpowers.»
Жанр: Фантастика, Фэнтези, Драма, Комедия
Перевод: Двухголосый закадровый, Многоголосый закадровый
Продолжительность: ~ 00:45:00 мин серия


Режиссер:
Том Грин, Джонатан ван Тюллекен, Том Харпер, Чина Му-Ен, Оуэн Харрис, Уильям Синклер, Нирпал Бхогал, Алекс Гарсиа, Уэйн Йип
Актеры:
Роберт Шиэн, Иван Реон, Лорен Соша, Антония Томас, Натан Стюарт-Джарретт, Джозеф Гилган, Крэйг Паркинсон, Мэттью МакНалти, Алекс Рид, Рут Негга, Джессика Браун-Финдли, Дэнни Сапани

Описание фильма:
Новые герои Финн и Джесс примерили оранжевые костюмы и отправились на свой первый день общественных работ, чтобы встретиться с надзирателем. Но после того, как в общественный центр врывается человек с кейсом, набитым деньгами, спокойная жизнь в центре заканчивается... Очень скоро Финну и Джесс становится ясно, что общественные работы — это нечто большее, чем отмывание граффитти и сбор мусора.
- В 2010 году сериал выиграл престижную награду BAFTA в номинации «Лучший Драматический сериал».
- Сам сериал и его сценарист Говард Оверман были номинированы на награду RTS в марте 2010.
Формат : Matroska
Версия формата : Version 2
Размер файла : 1,54 Гбайт
Продолжительность : 46 м.
Общий поток : 4777 Кбит/сек
Дата кодирования : UTC 2012-11-26 17:23:10
Программа кодирования : mkvmerge v5.0.1 ('Es ist Sommer') built on Oct 9 2011 11:55:43
Библиотека кодирования : libebml v1.2.2 + libmatroska v1.3.0

Видео
Идентификатор : 1
Формат : AVC
Формат/Информация : Advanced Video Codec
Профиль формата : Main@L3.1
Параметр CABAC формата : Нет
Параметр ReFrames формата : 2 кадра
Режим смешивания : Header stripping
Идентификатор кодека : V_MPEG4/ISO/AVC
Продолжительность : 46 м.
Битрейт : 4106 Кбит/сек
Ширина : 960 пикселей
Высота : 720 пикселей
Соотношение сторон : 16:9
Частота кадров : 25,000 кадров/сек
Цветовое пространство : YUV
Субдискретизация насыщенности : 4:2:0
Битовая глубина : 8 бит
Тип развёртки : Прогрессивная
Бит/(Пиксели*Кадры) : 0.238
Размер потока : 1,32 Гбайт (86%)
Язык : English
Default : Да
Forced : Нет
Основные цвета : BT.709-5, BT.1361, IEC 61966-2-4, SMPTE RP177
Характеристики трансфера : BT.709-5, BT.1361
Коэффициенты матрицы : BT.709-5, BT.1361, IEC 61966-2-4 709, SMPTE RP177

Аудио #1
Идентификатор : 2
Формат : AC-3
Формат/Информация : Audio Coding 3
Расширение режима : CM (complete main)
Режим смешивания : Header stripping
Идентификатор кодека : A_AC3
Продолжительность : 46 м.
Вид битрейта : Постоянный
Битрейт : 192 Кбит/сек
Каналы : 2 канала
Расположение каналов : Front: L R
Частота : 48,0 КГц
Битовая глубина : 16 бит
Метод сжатия : С потерями
Размер потока : 63,3 Мбайт (4%)
Заголовок : DVO
Язык : Russian
Default : Да
Forced : Нет

Аудио #2
Идентификатор : 3
Формат : AC-3
Формат/Информация : Audio Coding 3
Расширение режима : CM (complete main)
Режим смешивания : Header stripping
Идентификатор кодека : A_AC3
Продолжительность : 46 м.
Вид битрейта : Постоянный
Битрейт : 192 Кбит/сек
Каналы : 2 канала
Расположение каналов : Front: L R
Частота : 48,0 КГц
Битовая глубина : 16 бит
Метод сжатия : С потерями
Размер потока : 63,3 Мбайт (4%)
Заголовок : NovaFilm
Язык : Russian
Default : Нет
Forced : Нет

Аудио #3
Идентификатор : 4
Формат : AC-3
Формат/Информация : Audio Coding 3
Расширение режима : CM (complete main)
Режим смешивания : Header stripping
Идентификатор кодека : A_AC3
Продолжительность : 46 м.
Вид битрейта : Постоянный
Битрейт : 192 Кбит/сек
Каналы : 2 канала
Расположение каналов : Front: L R
Частота : 48,0 КГц
Битовая глубина : 16 бит
Метод сжатия : С потерями
Размер потока : 63,3 Мбайт (4%)
Язык : English
Default : Нет
Forced : Нет

Текст
Идентификатор : 5
Формат : UTF-8
Идентификатор кодека : S_TEXT/UTF8
Идентификатор кодека/Информация : UTF-8 Plain Text
Язык : English
Default : Нет
Forced : Нет
Качество видео: WEB-DLRip 720p
Видео: 960@1280x720 at 25 fps, x264, ~4100 kbps avg
Аудио #1 (Russian): AC3, 2.0 ch, 48 kHz, 192 kb/s |Двухголосый закадровый, Кубик в кубе|
Аудио #2 (Russian): AC3, 2.0 ch, 48 kHz, 192 kb/s |Многоголосый закадровый, NovaFilm|
Аудио #3 (English): AC3, 2.0 ch, 48 kHz, 192 kb/s |Оригинал|
Субтитры: English
В сериале содержится огромное количество ненормативной лексики!
Все раздачи сериала
Скриншоты:

Время раздачи: 24/7 - круглосуточно
Раздача ведётся путём добавления новых серий, при каждом добавлении создаётся новый торрент.
Чтобы начать докачку новой серии, пользователям необходимо сделать следующее:
1. остановить скачивание;
2. удалить старый торрент у себя из клиента (старые серии удалять не надо);
3. скачать новый торрент и запустить его у себя в клиенте вместо старого, при этом указать клиенту путь в старую папку куда и должно происходить скачивание новых серий. Ваш клиент при этом должен произвести хеширование (проверку) старой папки (если не производит сам - помогите ему сделать это), и будет докачивать только те серии которых у вас ещё нет. Старые серии при этом не удаляются, а продолжают раздаваться! Eсли вы уже удалили старые серии, то предотвратить повторную закачку старых серий можно, отжав галочку в соответствующих местах при запуске нового торрента.
21.12.12 добавлена финальная 8-я серия!
 Торрент: Платиновая раздача  Зарегистрирован
 
Скачать


 Зарегистрирован:   21 Дек 2012 23:43:27
 Размер:   12,2 GB  (
 Рейтинг:   4,9 (Голосов: 95)
 Поблагодарили:   268
 Проверка:   Оформление проверено модератором 22 Дек 2012 00:14:17
Как cкачать  ·  Как раздать  ·  Правильно оформить  ·  Поднять ратио!  
j_84 ®
Uploaders
 
Стаж: 10 лет 3 мес.
Сообщений: 277
Ratio: 251,426
Раздал: 71,11 TB
Поблагодарили: 10509
100%
Откуда: Крым, детка
pirates.png
Всем приятного просмотра!
kds11
Стаж: 6 лет 6 мес.
Сообщений: 16
Ratio: 2,128
Раздал: 884 GB
0%
russia.gif
Большое спасибо!
Замечательный сериал!
Стою на раздаче
Шубин Платон
Стаж: 7 лет 6 мес.
Сообщений: 94
Ratio: 49,608
Раздал: 26,13 TB
Поблагодарили: 244
100%
Откуда: Москва
russia.gif
новая серия? сон отменяется.

_________________
Процессор: AMD Phenom II X6 Black Edition 1100T.
Видеокарта: AMD Radeon HD 6850 1 GB.
Материнская плата: Gigabyte GA-990XA-UD3.
Оперативная память: 8 Gb DDR III.
Irunia
Стаж: 5 лет 7 мес.
Сообщений: 77
Ratio: 43,424
Раздал: 1,625 TB
100%
witch.png
Отличный сериал! Замечательно
Libravir
Стаж: 6 лет 11 мес.
Сообщений: 35
Ratio: 28,913
Поблагодарили: 1169
93.46%
В пятой серии идет рассинхрон новафильмовской и оиригнальной дорожек.
pashka05
Стаж: 5 лет 9 мес.
Сообщений: 17
4.36%
ukraine.gif
Чей перевод круче: от Новафилм или Кубик???
j_84 ®
Uploaders
 
Стаж: 10 лет 3 мес.
Сообщений: 277
Ratio: 251,426
Раздал: 71,11 TB
Поблагодарили: 10509
100%
Откуда: Крым, детка
pirates.png
pashka05
Я бы посоветовал смотреть в Кубике, на мой взгляд более качественный перевод
Oops_Smile
Стаж: 8 лет
Сообщений: 1544
Ratio: 55,784
Раздал: 56,41 TB
Поблагодарили: 44274
88.47%
Откуда: Симфе​ропол​ь​
j_84 писал(а): Перейти к сообщению

Я бы посоветовал смотреть в Кубике, на мой взгляд более качественный перевод

:да:

_________________
Мои раздачи
primitive
Стаж: 8 лет 6 мес.
Сообщений: 153
Ratio: 1,937
24.85%
russia.gif
оо, респект за раздачу!
Preload
Стаж: 8 лет 7 мес.
Сообщений: 122
Ratio: 6,31
100%
russia.gif
Спасибо!
pro10​0Miro​n​
Стаж: 3 года 2 мес.
Сообщений: 54
Ratio: 86,495
Раздал: 16,85 TB
100%
witch.png
супер сиреал
Показать сообщения:   
Начать новую тему   Ответить на тему    Торрент-трекер NNM-Club -> Зарубежные сериалы -> Отбросы / Misfits Часовой пояс: GMT + 3
Страница 1 из 1

День смеха и юмора отмечается 1 апреля. В этот день принято шутить и разыгрывать друзей, коллег по работе, домашних, словом всех, с кем Вам предстоит увидеться в этот праздник – первое апреля. Первоапрельские розыгрыши, приколы на 1 апреля, первоапрельские шутки должны быть веселыми и безобидными. Приколы на 1 апреля, как правило, удаются в том случае, если человек забыл какой сегодня месяц и день, словом, забыл про 1 апреля – день смеха, шуток, день дурака.

Желаем Вам много улыбок и хорошего настроения в этот день!
С Уважением, администрация NNM-Club :)