Классический форум-трекер
canvas not supported
Нас вместе: 4 071 115
loading...

Ярик (2007) DVDRip


 
 
RSS
Начать новую тему   Ответить на тему    Торрент-трекер NNM-Club -> Отечественное кино -> Отечественные Фильмы (HD*Rip/LQ, DVDRip, SATRip, VHSRip)
Автор Сообщение
Tayaki ®
Стаж: 10 лет 6 мес.
Сообщений: 10
Ratio: 5,013
Поблагодарили: 305
100%
Откуда: Петрозаводск
russia.gif
Ярик (2007) DVDRip
Год выпуска: 2007
Производство: Россия, Студия "МЫ", ЗАО "Красная Стрела"
Жанр: Драма, Семейный

Описание фильма:
Главному герою фильма — Ярославу — около шести лет. Вместе с мамой он приезжает в Москву к отцу, но тот их не встречает. Мама уходит купить Ярику что-нибудь поесть и не возвращается. Ребенок остается один в огромном городе.
Ему предстоит оказаться в игорном доме, в милиции, в чужом автомобиле. Его кормят совершенно незнакомые люди, кто-то помогает, а кто-то пинает, как котенка. Мытарства и страдания юного существа в мегаполисе бесконечны и жестоки.

Режиссер: Сесиль Анри, Александр Ласло, Иван Савенков
Актеры: Максим Колесников, Анатолий Белый, Сергей Бадичкин, Сергей Векслер, Михаил Горевой, Владимир Долинский, Елена Ксенофонтова, Дмитрий Персин, Анна Уколова, Ульяна Фролова, Денис Беспалый, Армен Джигарханян, Екатерина Лапина, Инна Москвичева, Алексей Шадхин

Продолжительность: 01:20:23
Качество видео: DVDRip
Субтитры: Английские, вшитые, неотключаемые



Видео: DivX 5, 2 263 Kbps, 704 x 400 pixels, 25.000 fps, Bits/(Pixel*Frame) : 0.321
Аудио: MP3, 160 Kbps, 2 channels, 48.0 KHz
Ярик (Yarik) [2008].avi
Format : AVI
Format/Info : Audio Video Interleave
File size : 1.36 GiB
Duration : 1h 20mn
Overall bit rate : 2 430 Kbps
Writing application : VirtualDubMod 1.5.4.1 (build 2178/release)
Writing library : VirtualDubMod build 2178/release

Video
ID : 0
Format : MPEG-4 Visual
Format settings, BVOP : No
Format settings, QPel : No
Format settings, GMC : No warppoints
Format settings, Matrix : Default (H.263)
Codec ID : DX50
Codec ID/Hint : DivX 5
Duration : 1h 20mn
Bit rate : 2 263 Kbps
Width : 704 pixels
Height : 400 pixels
Display aspect ratio : 16:9
Frame rate : 25.000 fps
Color space : YUV
Chroma subsampling : 4:2:0
Bit depth : 8 bits
Scan type : Progressive
Compression mode : Lossy
Bits/(Pixel*Frame) : 0.321
Stream size : 1.27 GiB (93%)
Writing library : DivX 6.8.3-6.8.4 (UTC 2008-06-07)

Audio
ID : 1
Format : MPEG Audio
Format version : Version 1
Format profile : Layer 3
Mode : Joint stereo
Mode extension : MS Stereo
Codec ID : 55
Codec ID/Hint : MP3
Duration : 1h 20mn
Bit rate mode : Constant
Bit rate : 160 Kbps
Channel(s) : 2 channels
Sampling rate : 48.0 KHz
Compression mode : Lossy
Stream size : 92.0 MiB (7%)
Alignment : Aligned on interleaves
Interleave, duration : 80 ms (2.00 video frames)
Interleave, preload duration : 504 ms
Writing library : LAME3.97
Encoding settings : -m j -V 4 -q 2 -lowpass 17.5 -b 160
Скриншоты:


Реставрация релиза: smaster67

Все релизы фильма на NNM-club
[NNM-Club.info] YArik (Yarik) [2008].avi.torrent
 Торрент: Платиновая раздача  Зарегистрирован
 
Скачать


 Зарегистрирован:   01 Окт 2008 15:11:29
 Размер:   1,36 GB  (
 Рейтинг:   4,5 (Голосов: 46)
 Поблагодарили:   161
 Проверка:   Оформление проверено модератором 01 Окт 2008 21:53:30
Как cкачать  ·  Как раздать  ·  Правильно оформить  ·  Поднять ратио!  
Lee0246
Стаж: 12 лет 6 мес.
Сообщений: 8
Ratio: 1,361
16.09%
Откуда: Москва
russia.gif
Посмотрите этот фильм. Его нужно посмотреть, чтобы немного измениться внутри.
Tayaki ®
Стаж: 10 лет 6 мес.
Сообщений: 10
Ratio: 5,013
Поблагодарили: 305
100%
Откуда: Петрозаводск
russia.gif
Фильму наивысший балл однозначно.
semenets
Стаж: 11 лет 8 мес.
Сообщений: 215
Ratio: 6,176
Поблагодарили: 239
100%
ussr.gif
Как всегда невнимательно читаем описание к релизу. В результате скачиваем фильм, где логотип "Мы" на полэкрана, но что сильнее всего убивает, так это английские субтитры в русском фильме.
4etaj
Стаж: 11 лет 2 мес.
Сообщений: 2
Ratio: 1,865
2.19%
Спасибо,большое очень хороший фильм,я считаю ,что фильм не оставит никого равнодушным.
Зверёныш
Главный Модератор
Стаж: 12 лет
Сообщений: 8193
Ratio: 1280,513
Раздал: 99,95 TB
Поблагодарили: 32508
100%
Откуда: Москва
russia.gif
По мне - ни логотип, ни титры не испортили фильм.
Фильм грустный. Но хороший.

_________________
Не жалей о прошлом, не бойся грядущего, цени настоящее.

Кто хочет - находит возможности. Кто не хочет - находит оправдания.
yaroshik
Стаж: 10 лет 10 мес.
Сообщений: 15
Ratio: 1,845
30.39%
russia.gif
Убойный фильм. Снег не может идти вечно...
Зверёныш
Главный Модератор
Стаж: 12 лет
Сообщений: 8193
Ratio: 1280,513
Раздал: 99,95 TB
Поблагодарили: 32508
100%
Откуда: Москва
russia.gif
Кто-нибудь заметил косяки в фильме?
Киноляпы.

_________________
Не жалей о прошлом, не бойся грядущего, цени настоящее.

Кто хочет - находит возможности. Кто не хочет - находит оправдания.
DreDeViL
Стаж: 9 лет
Сообщений: 1
Ratio: 4,788
0%
russia.gif
Переворачивает ли этот фильм душу? Да. Но ещё важно, в какую сторону он её перевернёт…

Так или иначе, фильм сильный. Лично меня он заинтересовал и, может, даже где-то удивил
Breeezze
Стаж: 9 лет 1 мес.
Сообщений: 322
Ratio: 4,421
Поблагодарили: 111
100%
russia.gif
много актёров известных, а фильм нигде не показали по телеку, не хотят чтоб люди задумывались... смотрите дом 2 и тупейте, долбанные средства массовой информации
smaster67
Модератор Видео
Покровитель талантов Uploader 300+
Стаж: 9 лет 9 мес.
Сообщений: 7111
Ratio: 226,788
Поблагодарили: 214404
100%
Volga Boss
Стаж: 8 лет 11 мес.
Сообщений: 58
Ratio: 42,398
Раздал: 17,18 TB
100%
Откуда: Волгоград
russia.gif
Я так предполагаю что фильм из разряда таких как "Похороните меня за плинтусом" или "Сибирь Монамур" точно не помню и т.д, надеюсь что это так. Люблю такие фильмы, где нет лоска а есть серость, этот черствый и полный безразличия мир.
I1977
Стаж: 9 лет 5 мес.
Сообщений: 311
Ratio: 11,735
100%
Volga Boss писал(а): Перейти к сообщению
Я так предполагаю что фильм из разряда таких как "Похороните меня за плинтусом" или "Сибирь Монамур" точно не помню и т.д, надеюсь что это так. Люблю такие фильмы, где нет лоска а есть серость, этот черствый и полный безразличия мир.


Мсье - гот? Или эмо?
Trixxxy
Стаж: 5 лет 3 мес.
Сообщений: 1350
Ratio: 8,104
100%
papuanewguinea.gif
Попробуй заговорить с незнакомым ребенком и потом объясняй всем, что ты не маньяк-педофил.
sergei0907
Стаж: 8 лет 3 мес.
Сообщений: 154
Ratio: 9,576
100%
Откуда: Саха Якутия г.Нерюнгри
да уж,фильм надо посмотреть,тяжёлый,жизненый
Показать сообщения:   
Начать новую тему   Ответить на тему    Торрент-трекер NNM-Club -> Отечественное кино -> Отечественные Фильмы (HD*Rip/LQ, DVDRip, SATRip, VHSRip) Часовой пояс: GMT + 3
Страница 1 из 1