Классический форум-трекер
canvas not supported
Нас вместе: 4 065 403

The BBC Concert Orchestra - Cinema Silver Screen Classic (2012) [FLAC|Lossless]<Instrumental, Score>


 
 
RSS
Начать новую тему   Ответить на тему    Торрент-трекер NNM-Club -> Other Styles -> OST (Lossless)
Автор Сообщение
PlaNed ®
Стаж: 6 лет 9 мес.
Сообщений: 1358
Ratio: 1000,581
Поблагодарили: 67965
38.58%
Откуда: The Net!
bulgaria.gif
The BBC Concert Orchestra - Cinema Silver Screen Classic (2012)
Год: 2012
Жанр: Instrumental, Score
Издатель: Platinum Records
Номер по каталогу: PRS0061
Страна изготовитель: Japan
Продолжительность: 01:19:48

Кодек: FLAC | Битрейт: Lossless | Источник: Web

Треклист:

01. Francis Lai: Love Story [06:12]
02. Georges Auric: Moulin Rouge [02:28]
03. Charles Chaplin: Limelight [03:01]
04. Max Steiner: A Summer Place [03:03]
05. Herman Hupfeld: Casablanca [06:32]
06. Riz Ortolani & Nino Oliviero: Mondo Cane "More" [04:19]
07. Andrew Lloyd Webber: Jesus Christ Superstar [06:02]
08. Ernest Gold: Exodus [03:07]
09. Elmer Bernstein: The Magnificent Seven [03:59]
10. John Williams: Raiders Of The Lost Arc [05:48]
11. John Williams: Star Wars [05:31]
12. John Williams: Superman [04:33]
13. John Williams: E. T. [04:59]
14. Monty Norman: James Bond "Dr. No" [08:55]
15. Francis Lai: A Man And A Woman [03:06]
16. Michel Legrand: Summer of '42 [04:56]
17. John Barry: Out Of Africa [03:13]
Код:

Exact Audio Copy V1.0 beta 1 from 15. November 2010

EAC extraction logfile from 16. September 2013, 9:47

The BBC Concert Orchestra / Cinema Silver Screen Classic

Used drive  : PIONEER DVD-RW  DVR-118L   Adapter: 4  ID: 0

Read mode               : Secure
Utilize accurate stream : Yes
Defeat audio cache      : Yes
Make use of C2 pointers : No

Read offset correction                      : 6
Overread into Lead-In and Lead-Out          : No
Fill up missing offset samples with silence : Yes
Delete leading and trailing silent blocks   : No
Null samples used in CRC calculations       : Yes
Used interface                              : Native Win32 interface for Win NT & 2000

Used output format : Internal WAV Routines
Sample format      : 44.100 Hz; 16 Bit; Stereo

TOC of the extracted CD

     Track |   Start  |  Length  | Start sector | End sector
    ---------------------------------------------------------
        1  |  0:00.00 |  6:12.29 |         0    |    27928
        2  |  6:12.29 |  2:28.23 |     27929    |    39051
        3  |  8:40.52 |  3:01.40 |     39052    |    52666
        4  | 11:42.17 |  3:03.28 |     52667    |    66419
        5  | 14:45.45 |  6:32.39 |     66420    |    95858
        6  | 21:18.09 |  4:19.38 |     95859    |   115321
        7  | 25:37.47 |  6:02.09 |    115322    |   142480
        8  | 31:39.56 |  3:07.38 |    142481    |   156543
        9  | 34:47.19 |  3:59.34 |    156544    |   174502
       10  | 38:46.53 |  5:47.71 |    174503    |   200598
       11  | 44:34.49 |  5:30.57 |    200599    |   225405
       12  | 50:05.31 |  4:33.48 |    225406    |   245928
       13  | 54:39.04 |  4:59.00 |    245929    |   268353
       14  | 59:38.04 |  8:55.10 |    268354    |   308488
       15  | 68:33.14 |  3:05.56 |    308489    |   322419
       16  | 71:38.70 |  4:56.00 |    322420    |   344619
       17  | 76:34.70 |  3:13.41 |    344620    |   359135

Range status and errors

Selected range

     Filename F:\eac\The BBC Concert Orchestra - Cinema Silver Screen Classic.wav

     Peak level 80.9 %
     Extraction speed 0.0 X
     Range quality 100.0 %
     Test CRC 027069CE
     Copy CRC 027069CE
     Copy OK

No errors occurred

AccurateRip summary

Track  1  not present in database
Track  2  not present in database
Track  3  not present in database
Track  4  not present in database
Track  5  not present in database
Track  6  not present in database
Track  7  not present in database
Track  8  not present in database
Track  9  not present in database
Track 10  not present in database
Track 11  not present in database
Track 12  not present in database
Track 13  not present in database
Track 14  not present in database
Track 15  not present in database
Track 16  not present in database
Track 17  not present in database

None of the tracks are present in the AccurateRip database

End of status report

==== Log checksum 59AC3F3199C27BF48A38CCD7CF8A790BA13784A835376754D5AC623D24E096C4 ====
Код:

1
Время раздачи: 24/7


Поглощение/вытеснение
Только с согласия релизера

J_Man
[NNM-Club.me]_The BBC Concert Orchestra - Cinema Silver Screen Classic (2012).torrent
 Торрент: Платиновая раздача  Зарегистрирован
 
Скачать


Примагнититься
 Зарегистрирован:   19 Сен 2013 16:13:23
 Размер:   504 MB  (
 Рейтинг:   4,8 (Голосов: 17)
 Поблагодарили:   73
 Проверка:   Оформление проверено модератором 19 Сен 2013 21:17:01
Как cкачать  ·  Как раздать  ·  Правильно оформить  ·  Поднять ратио!  
elfix
Стаж: 8 лет 3 мес.
Сообщений: 1
Ratio: 11,461
2.36%
Что с CUE? Foobar его не понимает.
Показать сообщения:   
Начать новую тему   Ответить на тему    Торрент-трекер NNM-Club -> Other Styles -> OST (Lossless) Часовой пояс: GMT + 3
Страница 1 из 1