Интеллигентный торрент-трекер

Нас вместе: 3 593 124 | Новости торрент-трекера | Как тут скачивать? | Как раздавать торренты? | Правила оформления

Приключения Виннету. Легенда сокровища Серебрянного озера / WinneToons - Die Legende vom Schatz im Silbersee (2009) DVDRip [H.264]


 
 
RSS
Начать новую тему   Ответить на тему    Торрент-трекер NNM-Club -> Мультфильмы -> Зарубежные Мультфильмы (HD*Rip/LQ, DVDRip, SATRip, VHSRip)
Предыдущая тема :: Следующая тема  
Автор Сообщение
wgiw ®
Модератор Детских Книг
RG Всё лучшее - детям!
 


Стаж: 1 год 7 месяцев
Сообщений: 2096
Ratio: 148,836
Раздал: 61,25 TB
Поблагодарили: 189654
100%
Откуда: СССР
ussr.gif

Сообщение 08 Окт 2013 04:26:35  Заголовок сообщения: Приключения Виннету. Легенда сокровища Серебрянного озера / WinneToons - Die Legende vom Schatz im Silbersee (2009) DVDR Ответить с цитатой

Приключения Виннету. Легенда сокровища Серебрянного озера / WinneToons - Die Legende vom Schatz im Silbersee (2009) DVDRip [H.264]
Год выпуска: 2009
Жанр: Мультфильм, семейный
Производство: DeFamilieJanssen (DFJ), Europool, Toon City Animation

Описание:
Аризона, 1869 год. Мальчик-сирота Бобби из Нью-Йорка отправляется на Дикий Запад, чтобы добыть клад. У него есть карта сокровищ, за которыми также охотятся злодей Бринкли и его банда. Они похищают мальчика и маленькую сестренку Виннету Ншо-чи. Вождь апачей и его кровный брат пускаются вслед по пятам банды Бринкли. Смогут ли они оба успеть добраться до Серебряного озера?

Режиссер: Герт Людвиг

Продолжительность: 01:17:26
Качество видео: DVDRip
Перевод: Одноголосый закадровый
Автор перевода: Юрий Живов

Видеокодек: AVC
Битрейт видео: ~1420 Кбит/с
Размер кадра: 716x554@1018x554
Audio #1: Русский (AC3, 2 ch, 448 Кбит/с)
Audio #2: Немецкий (AC3, 2 ch, 448 Кбит/с)
Семпл: Ссылка

General
Unique ID : 232690265684362882676242900309645462557 (0xAF0E83D9FB6E0B72B1D8545C41900C1D)
Complete name : D:\DVD\ \WinneToons-Die.Legende.vom.Schatz.im.Silbersee.2009.DVDRip.x264.AC3-xfiles.mkv
Format : Matroska
Format version : Version 4 / Version 2
File size : 1.25 GiB
Duration : 1h 17mn
Overall bit rate : 2 319 Kbps
Movie name : WinneToons – Die Legende vom Schatz im Silbersee (2009) DVDRip-xfiles
Encoded date : UTC 2013-10-07 16:50:50
Writing application : mkvmerge v6.4.1 ('Omega Point') built on Sep 16 2013 22:05:10
Writing library : libebml v1.3.0 + libmatroska v1.4.1

Video
ID : 1
Format : AVC
Format/Info : Advanced Video Codec
Format profile : High@L4.1
Format settings, CABAC : Yes
Format settings, ReFrames : 16 frames
Codec ID : V_MPEG4/ISO/AVC
Duration : 1h 17mn
Bit rate : 1 420 Kbps
Width : 716 pixels
Height : 554 pixels
Display aspect ratio : 1.85:1
Frame rate mode : Constant
Frame rate : 25.000 fps
Color space : YUV
Chroma subsampling : 4:2:0
Bit depth : 8 bits
Scan type : Progressive
Bits/(Pixel*Frame) : 0.139
Stream size : 763 MiB (59%)
Title : http:// .org/forum/viewtopic.php?t=4555183
Writing library : x264 core 138 r2358kMod 9e941d1
Encoding settings : cabac=1 / ref=16 / deblock=1:-2:-1 / analyse=0x3:0x133 / me=umh / subme=11 / psy=1 / fade_compensate=0.00 / psy_rd=0.60:0.00 / mixed_ref=1 / me_range=36 / chroma_me=1 / trellis=2 / 8x8dct=1 / cqm=0 / deadzone=21,11 / fast_pskip=0 / chroma_qp_offset=-2 / threads=6 / lookahead_threads=1 / sliced_threads=0 / nr=0 / decimate=1 / interlaced=0 / bluray_compat=0 / constrained_intra=0 / bframes=16 / b_pyramid=2 / b_adapt=2 / b_bias=0 / direct=3 / weightb=1 / open_gop=0 / weightp=2 / keyint=250 / keyint_min=25 / scenecut=40 / intra_refresh=0 / rc_lookahead=70 / rc=crf / mbtree=0 / crf=16.2110 / qcomp=0.60 / qpmin=0 / qpmax=69 / qpstep=4 / vbv_maxrate=50000 / vbv_bufsize=62500 / crf_max=0.0 / nal_hrd=none / ip_ratio=1.40 / pb_ratio=1.30 / aq=2:1.00
Language : German
Default : Yes
Forced : No
Color primaries : BT.601 PAL
Transfer characteristics : BT.470 System B, BT.470 System G
Matrix coefficients : BT.601

Audio #1
ID : 2
Format : AC-3
Format/Info : Audio Coding 3
Mode extension : CM (complete main)
Format settings, Endianness : Big
Codec ID : A_AC3
Duration : 1h 17mn
Bit rate mode : Constant
Bit rate : 448 Kbps
Channel(s) : 6 channels
Channel positions : Front: L C R, Side: L R, LFE
Sampling rate : 48.0 KHz
Bit depth : 16 bits
Compression mode : Lossy
Stream size : 248 MiB (19%)
Title : Одноголосый закадровый | Юрий Живов
Language : Russian
Default : Yes
Forced : No

Audio #2
ID : 3
Format : AC-3
Format/Info : Audio Coding 3
Mode extension : CM (complete main)
Format settings, Endianness : Big
Codec ID : A_AC3
Duration : 1h 17mn
Bit rate mode : Constant
Bit rate : 448 Kbps
Channel(s) : 6 channels
Channel positions : Front: L C R, Side: L R, LFE
Sampling rate : 48.0 KHz
Bit depth : 16 bits
Compression mode : Lossy
Stream size : 248 MiB (19%)
Language : German
Default : No
Forced : No

Menu
00:00:00.000 : de:01. Eine Legende
00:07:51.920 : de:02. Auf nach Arizona
00:14:32.280 : de:03. Die Brinkley-Bande
00:21:33.000 : de:04. Old Shatterhands Plan
00:30:19.400 : de:05. Der Überfall
00:36:59.320 : de:06. Bobby und Nscho-tschi
00:41:02.320 : de:07. Vereinbarung mit Brinkley
00:50:44.640 : de:08. Auf dem Weg zum Silbersee
00:57:06.720 : de:09. Der Schatz der Montezuma
01:07:01.800 : de:10. Freunde fürs Leben
01:17:10.120 : de:11. Das Ende
Скриншоты:


Время раздачи: 02.00-18.00 мск. до 5-скачавших
[NNM-Club.me]_Priklyucheniya Vinnetu. Legenda sokrovishcha Serebryannogo ozera.mkv.torrent
 Торрент: Серебряная раздча  Зарегистрирован
 
Примагнититься

Зарегистрируйтесь и скачайте торрент!
 Зарегистрирован:   08 Окт 2013 04:26:35
 Размер:   1,25 GB  (
 Рейтинг:   4,9 (Голосов: 25)
 Поблагодарили:   96
 Проверка:   Оформление проверено модератором 08 Окт 2013 06:19:32
Как cкачать  ·  Как раздать  ·  Правильно оформить  ·  Поднять ратио!  
genira333


Стаж: 10 месяцев 11 дней
Сообщений: 590
Ratio: 47,3
97.38%
Откуда: Ukraine
ukraine.gif

Сообщение 08 Окт 2013 11:10:52  Заголовок сообщения: Ответить с цитатой

Спасибо! Посмотрим!
wgiw ®
Модератор Детских Книг
RG Всё лучшее - детям!
 


Стаж: 1 год 7 месяцев
Сообщений: 2096
Ratio: 148,836
Раздал: 61,25 TB
Поблагодарили: 189654
100%
Откуда: СССР
ussr.gif

Сообщение 08 Окт 2013 13:14:50  Заголовок сообщения: Ответить с цитатой

genira333 писал(а): Перейти к сообщению
Спасибо! Посмотрим!

Приятного просмотра :приветствую:
Показать сообщения:   
Начать новую тему   Ответить на тему    Торрент-трекер NNM-Club -> Мультфильмы -> Зарубежные Мультфильмы (HD*Rip/LQ, DVDRip, SATRip, VHSRip) Часовой пояс: GMT + 4
Страница 1 из 1