Интеллигентный торрент-трекер
canvas not supported
Нас вместе: 4 413 839

Подранки (1976) DVDRip


 
 
RSS
Начать новую тему   Ответить на тему    Торрент-трекер NNM-Club -> Классика кино и Фильмы до 90-х -> Отечественная Классика (HD*Rip/LQ, DVDRip, SATRip, VHSRip)
Автор Сообщение
Rocky Balboa ®
RG Releasers
 
Стаж: 5 лет 2 мес.
Сообщений: 1660
Ratio: 34,184
Поблагодарили: 271865
100%
Подранки (1976) DVDRip
Русское название: Подранки
Страна: СССР
Год выпуска: 1976
Жанр: Драма

Описание фильма:
Печаль и радость, вера и отчаянье тесно переплетаются в сознании писателя Алексея Бертенева, когда память возвращает его в детство. А детство этого поколения было нелегким — оно пришлось на суровые годы войны.

Режиссер: Николай Губенко
Актеры: Юозас Будрайтис, Александр Калягин, Жанна Болотова, Ролан Быков, Бухути Закариадзе, Евгений Евстигнеев, Алексей Черствов, Николай Губенко, Георгий Бурков, Наталья Гундарева и др.

Продолжительность: 01:28:10
Качество видео: DVDRip


Возраст: (для любой зрительской аудитории)

Видеокодек: XviD
Битрейт видео: ~2165 кбит/сек
Размер кадра: 720x528 (4:3)
Аудиокодек: AC3, 1 ch
Битрейт аудио: 192 кбит/сек
Сэмпл: Ссылка
Код:
General
Complete name                  : Podranki.1976.DVDRip.NNM-CLUB.RU.avi
Format                         : AVI
Format/Info                    : Audio Video Interleave
File size                      : 1.46 GiB
Duration                       : 1h 28mn
Overall bit rate               : 2 367 Kbps
Writing application            : VirtualDubModRus 1.5.10.2 (build 2542/release)
Writing library                : VirtualDubMod build 2542/release

Video
ID                             : 0
Format                         : MPEG-4 Visual
Format profile                 : Advanced Simple@L5
Format settings, BVOP          : Yes
Format settings, QPel          : No
Format settings, GMC           : No warppoints
Format settings, Matrix        : Custom
Codec ID                       : XVID
Codec ID/Hint                  : XviD
Duration                       : 1h 28mn
Bit rate                       : 2 165 Kbps
Width                          : 720 pixels
Height                         : 528 pixels
Display aspect ratio           : 4:3
Frame rate                     : 25.000 fps
Color space                    : YUV
Chroma subsampling             : 4:2:0
Bit depth                      : 8 bits
Scan type                      : Progressive
Compression mode               : Lossy
Bits/(Pixel*Frame)             : 0.228
Stream size                    : 1.33 GiB (91%)
Writing library                : XviD 65

Audio
ID                             : 1
Format                         : AC-3
Format/Info                    : Audio Coding 3
Mode extension                 : CM (complete main)
Format settings, Endianness    : Big
Codec ID                       : 2000
Duration                       : 1h 28mn
Bit rate mode                  : Constant
Bit rate                       : 192 Kbps
Channel(s)                     : 1 channel
Channel positions              : Front: C
Sampling rate                  : 48.0 KHz
Bit depth                      : 16 bits
Compression mode               : Lossy
Stream size                    : 121 MiB (8%)
Alignment                      : Split accross interleaves
Interleave, duration           : 40 ms (1.00 video frame)
Interleave, preload duration   : 500 ms


Скриншоты:



Подранки (1976) на NNM-Сlub.ru
Время раздачи: 24/7 по возможности
Podranki.1976.DVDRip.NNM-CLUB.RU.avi.torrent
 Торрент: Платиновая раздача  Зарегистрирован
 
Примагнититься

Скачать
 Зарегистрирован:   30 Июн 2013 20:08:39
 Размер:   1,46 GB  (
 Рейтинг:   4,8 (Голосов: 100)
 Поблагодарили:   283
 Проверка:   Оформление проверено модератором 02 Июл 2013 07:43:04
Как cкачать  ·  Как раздать  ·  Правильно оформить  ·  Поднять ратио!  
dimitrii36
Стаж: 4 года 4 мес.
Сообщений: 241
Ratio: 31,376
100%
Откуда: от верблюда
witch.png
Достойный фильм,а главное жизненный,советую к просмотру.

_________________
Благодарю за труды. Когда мы едины,мы непобедимы!
blake75
Стаж: 6 лет 1 мес.
Сообщений: 185
Ratio: 19,332
Поблагодарили: 1393
100%
Фильм, "пережив" который однажды, уже никогда не забудешь.
Спасибо!

_________________
Мои Релизы
mehan​ov201​0​
Стаж: 5 лет 9 мес.
Сообщений: 5
Ratio: 37,27
13.21%
russia.gif
Вот раньше снимали... :респект:
lapyzo
Стаж: 5 лет 4 мес.
Сообщений: 126
Ratio: 14,609
Поблагодарили: 383
97.52%
Откуда: Уфа
russia.gif
Фильм душевный! Очень красивый! В этом кино отлично всё: и режиссура, и операторская работа, и актёрское мастерство.
keofan
Стаж: 6 лет 1 мес.
Сообщений: 87
Ratio: 6,092
91.69%
любимый фильм из детства, плюс музыкальный ряд Вивальди, просто отпад!
Kalitenga
Стаж: 6 лет 5 мес.
Сообщений: 265
Ratio: 5,9
89.12%
russia.gif
Великий фильм!
bravo812
Стаж: 6 лет 6 мес.
Сообщений: 263
Ratio: 2,403
41.35%
ussr.gif
Сильнейший фильм и сюжет!
Помню его пацаном ещё совсем смотрел, тогда и патриотизм закладывался в меня.
Pavel​Pugac​hOff​
Стаж: 6 лет 3 мес.
Сообщений: 198
Ratio: 1,528
91.15%
russia.gif
ОТЛИЧНЫЙ фильм о послевоенном времени и "детях-подранках", о переплетение во многом похожих детских судеб, взаимоотношение со старшим поколением. Низкий поклон режиссеру Николаю Губенко за достойною работу. Запомнится надолго!!! 10 из 10!!!
Dalaynor
Стаж: 3 года 5 мес.
Сообщений: 11
Ratio: 39,45
Раздал: 4,487 TB
97.01%
russia.gif
Спасибо! Качаю показать девятилетнему сыну, один из любимейших фильмов детства.
Петрович тут
Стаж: 5 лет 1 мес.
Сообщений: 82
Ratio: 6,633
3.28%
Шикарная Картина! Картина с большой буквы!
lev2015
Стаж: 3 года
Сообщений: 245
Ratio: 190,595
Раздал: 25,92 TB
100%
Откуда: Нижний Новгород
russia.gif
Смотрел. Сильный фильм.

_________________
Терпение-это прекрасно!
Показать сообщения:   
Начать новую тему   Ответить на тему    Торрент-трекер NNM-Club -> Классика кино и Фильмы до 90-х -> Отечественная Классика (HD*Rip/LQ, DVDRip, SATRip, VHSRip) Часовой пояс: GMT + 3
Страница 1 из 1