Интеллигентный торрент-трекер
Нас вместе: 3 949 638 | Новости торрент-трекера | Как тут скачивать? | Как раздавать торренты? | Правила оформления

Подранки (1976) DVDRip


 
 
RSS
Начать новую тему   Ответить на тему    Торрент-трекер NNM-Club -> Классика кино и Фильмы до 90-х -> Отечественная Классика (HD*Rip/LQ, DVDRip, SATRip, VHSRip)
Предыдущая тема :: Следующая тема 
Автор Сообщение
Rocky Balboa ®
RG Releasers
 
Стаж: 3 года 7 мес.
Сообщений: 1277
Ratio: 31,261
Поблагодарили: 183420
100%
Сообщение 30 Июн 2013 20:08:39  Заголовок сообщения: Подранки (1976) DVDRip Ответить с цитатой

Подранки (1976) DVDRip
Русское название: Подранки
Страна: СССР
Год выпуска: 1976
Жанр: Драма

Описание фильма:
Печаль и радость, вера и отчаянье тесно переплетаются в сознании писателя Алексея Бертенева, когда память возвращает его в детство. А детство этого поколения было нелегким — оно пришлось на суровые годы войны.

Режиссер: Николай Губенко
Актеры: Юозас Будрайтис, Александр Калягин, Жанна Болотова, Ролан Быков, Бухути Закариадзе, Евгений Евстигнеев, Алексей Черствов, Николай Губенко, Георгий Бурков, Наталья Гундарева и др.

Продолжительность: 01:28:10
Качество видео: DVDRip


Возраст: (для любой зрительской аудитории)

Видеокодек: XviD
Битрейт видео: ~2165 кбит/сек
Размер кадра: 720x528 (4:3)
Аудиокодек: AC3, 1 ch
Битрейт аудио: 192 кбит/сек
Сэмпл: Ссылка
Код:
General
Complete name                  : Podranki.1976.DVDRip.NNM-CLUB.RU.avi
Format                         : AVI
Format/Info                    : Audio Video Interleave
File size                      : 1.46 GiB
Duration                       : 1h 28mn
Overall bit rate               : 2 367 Kbps
Writing application            : VirtualDubModRus 1.5.10.2 (build 2542/release)
Writing library                : VirtualDubMod build 2542/release

Video
ID                             : 0
Format                         : MPEG-4 Visual
Format profile                 : Advanced Simple@L5
Format settings, BVOP          : Yes
Format settings, QPel          : No
Format settings, GMC           : No warppoints
Format settings, Matrix        : Custom
Codec ID                       : XVID
Codec ID/Hint                  : XviD
Duration                       : 1h 28mn
Bit rate                       : 2 165 Kbps
Width                          : 720 pixels
Height                         : 528 pixels
Display aspect ratio           : 4:3
Frame rate                     : 25.000 fps
Color space                    : YUV
Chroma subsampling             : 4:2:0
Bit depth                      : 8 bits
Scan type                      : Progressive
Compression mode               : Lossy
Bits/(Pixel*Frame)             : 0.228
Stream size                    : 1.33 GiB (91%)
Writing library                : XviD 65

Audio
ID                             : 1
Format                         : AC-3
Format/Info                    : Audio Coding 3
Mode extension                 : CM (complete main)
Format settings, Endianness    : Big
Codec ID                       : 2000
Duration                       : 1h 28mn
Bit rate mode                  : Constant
Bit rate                       : 192 Kbps
Channel(s)                     : 1 channel
Channel positions              : Front: C
Sampling rate                  : 48.0 KHz
Bit depth                      : 16 bits
Compression mode               : Lossy
Stream size                    : 121 MiB (8%)
Alignment                      : Split accross interleaves
Interleave, duration           : 40 ms (1.00 video frame)
Interleave, preload duration   : 500 ms


Скриншоты:



Подранки (1976) на NNM-Сlub.ru
Время раздачи: 24/7 по возможности
Podranki.1976.DVDRip.NNM-CLUB.RU.avi.torrent
 Торрент: Платиновая раздача  Зарегистрирован
 
Примагнититься
Free Leech
Скачать
15 KB
 Зарегистрирован:   30 Июн 2013 20:08:39
 Размер:   1,46 GB  (
 Рейтинг:   4,8 (Голосов: 90)
 Поблагодарили:   244
 Проверка:   Оформление проверено модератором 02 Июл 2013 07:43:04
Как cкачать  ·  Как раздать  ·  Правильно оформить  ·  Поднять ратио!  
dimitrii36
Стаж: 2 года 9 мес.
Сообщений: 190
Ratio: 20,134
100%
Откуда: от верблюда
witch.png
Сообщение 02 Июл 2013 12:23:56  Заголовок сообщения: Ответить с цитатой

Достойный фильм,а главное жизненный,советую к просмотру.

_________________
Благодарю за труды. Когда мы едины,мы непобедимы!
blake75
Стаж: 4 года 6 мес.
Сообщений: 109
Ratio: 13,161
Поблагодарили: 650
100%
Сообщение 02 Июл 2013 12:42:41  Заголовок сообщения: Ответить с цитатой

Фильм, "пережив" который однажды, уже никогда не забудешь.
Спасибо!

_________________
Мои Релизы
mehan​ov201​0​
Стаж: 4 года 2 мес.
Сообщений: 4
Ratio: 50,401
17.11%
russia.gif
Сообщение 02 Июл 2013 20:40:44  Заголовок сообщения: Ответить с цитатой

Вот раньше снимали... :респект:
lapyzo
Стаж: 3 года 9 мес.
Сообщений: 109
Ratio: 14,138
Поблагодарили: 315
92.44%
Откуда: Уфа
russia.gif
Сообщение 03 Июл 2013 00:28:34  Заголовок сообщения: Ответить с цитатой

Фильм душевный! Очень красивый! В этом кино отлично всё: и режиссура, и операторская работа, и актёрское мастерство.
keofan
Стаж: 4 года 5 мес.
Сообщений: 84
Ratio: 5,673
90.95%
Сообщение 03 Июл 2013 08:49:01  Заголовок сообщения: Ответить с цитатой

любимый фильм из детства, плюс музыкальный ряд Вивальди, просто отпад!
Kalitenga
Стаж: 4 года 10 мес.
Сообщений: 248
Ratio: 4,859
91.12%
russia.gif
Сообщение 03 Июл 2013 15:19:14  Заголовок сообщения: Ответить с цитатой

Великий фильм!
bravo812
Стаж: 4 года 11 мес.
Сообщений: 239
Ratio: 2,39
42.23%
ussr.gif
Сообщение 11 Май 2014 19:47:34  Заголовок сообщения: Ответить с цитатой

Сильнейший фильм и сюжет!
Помню его пацаном ещё совсем смотрел, тогда и патриотизм закладывался в меня.
Показать сообщения:   
Начать новую тему   Ответить на тему    Торрент-трекер NNM-Club -> Классика кино и Фильмы до 90-х -> Отечественная Классика (HD*Rip/LQ, DVDRip, SATRip, VHSRip) Часовой пояс: GMT + 3
Страница 1 из 1