Интеллигентный торрент-трекер

Нас вместе: 3 593 583 | Новости торрент-трекера | Как тут скачивать? | Как раздавать торренты? | Правила оформления

Скачать бесплатно торрент Подранки (1976) DVDRip torrent download


 
 
RSS
Начать новую тему   Ответить на тему    Торрент-трекер NNM-Club -> Классика кино и Фильмы до 90-х -> Отечественная Классика (HD*Rip/LQ, DVDRip, SATRip, VHSRip)
Предыдущая тема :: Следующая тема 
Автор Сообщение
Rocky Balboa ®
RG Releasers
 


Стаж: 3 года 2 мес.
Сообщений: 1278
Ratio: 31,26
Поблагодарили: 176530
100%

Сообщение 30 Июн 2013 21:08:39  Заголовок сообщения: Подранки (1976) DVDRip Ответить с цитатой

Подранки (1976) DVDRip
Русское название: Подранки
Страна: СССР
Год выпуска: 1976
Жанр: Драма

Описание фильма:
Печаль и радость, вера и отчаянье тесно переплетаются в сознании писателя Алексея Бертенева, когда память возвращает его в детство. А детство этого поколения было нелегким — оно пришлось на суровые годы войны.

Режиссер: Николай Губенко
Актеры: Юозас Будрайтис, Александр Калягин, Жанна Болотова, Ролан Быков, Бухути Закариадзе, Евгений Евстигнеев, Алексей Черствов, Николай Губенко, Георгий Бурков, Наталья Гундарева и др.

Продолжительность: 01:28:10
Качество видео: DVDRip


Возраст: (для любой зрительской аудитории)

Видеокодек: XviD
Битрейт видео: ~2165 кбит/сек
Размер кадра: 720x528 (4:3)
Аудиокодек: AC3, 1 ch
Битрейт аудио: 192 кбит/сек
Сэмпл: Ссылка
Код:
General
Complete name                  : Podranki.1976.DVDRip.NNM-CLUB.RU.avi
Format                         : AVI
Format/Info                    : Audio Video Interleave
File size                      : 1.46 GiB
Duration                       : 1h 28mn
Overall bit rate               : 2 367 Kbps
Writing application            : VirtualDubModRus 1.5.10.2 (build 2542/release)
Writing library                : VirtualDubMod build 2542/release

Video
ID                             : 0
Format                         : MPEG-4 Visual
Format profile                 : Advanced Simple@L5
Format settings, BVOP          : Yes
Format settings, QPel          : No
Format settings, GMC           : No warppoints
Format settings, Matrix        : Custom
Codec ID                       : XVID
Codec ID/Hint                  : XviD
Duration                       : 1h 28mn
Bit rate                       : 2 165 Kbps
Width                          : 720 pixels
Height                         : 528 pixels
Display aspect ratio           : 4:3
Frame rate                     : 25.000 fps
Color space                    : YUV
Chroma subsampling             : 4:2:0
Bit depth                      : 8 bits
Scan type                      : Progressive
Compression mode               : Lossy
Bits/(Pixel*Frame)             : 0.228
Stream size                    : 1.33 GiB (91%)
Writing library                : XviD 65

Audio
ID                             : 1
Format                         : AC-3
Format/Info                    : Audio Coding 3
Mode extension                 : CM (complete main)
Format settings, Endianness    : Big
Codec ID                       : 2000
Duration                       : 1h 28mn
Bit rate mode                  : Constant
Bit rate                       : 192 Kbps
Channel(s)                     : 1 channel
Channel positions              : Front: C
Sampling rate                  : 48.0 KHz
Bit depth                      : 16 bits
Compression mode               : Lossy
Stream size                    : 121 MiB (8%)
Alignment                      : Split accross interleaves
Interleave, duration           : 40 ms (1.00 video frame)
Interleave, preload duration   : 500 ms


Скриншоты:



Подранки (1976) на NNM-Сlub.ru
Время раздачи: 24/7 по возможности
Podranki.1976.DVDRip.NNM-CLUB.RU.avi.torrent
 Торрент: Платиновая раздача  Зарегистрирован
 
Примагнититься
Free Leech
Скачать
15 KB
 Зарегистрирован:   30 Июн 2013 21:08:39
 Размер:   1,46 GB  (
 Рейтинг:   4,8 (Голосов: 89)
 Поблагодарили:   232
 Проверка:   Оформление проверено модератором 02 Июл 2013 08:43:04
Как cкачать  ·  Как раздать  ·  Правильно оформить  ·  Поднять ратио!  
dimitrii36


Стаж: 2 года 4 мес.
Сообщений: 180
Ratio: 17,485
100%
Откуда: от верблюда
witch.png

Сообщение 02 Июл 2013 13:23:56  Заголовок сообщения: Ответить с цитатой

Достойный фильм,а главное жизненный,советую к просмотру.

_________________
Благодарю за труды. Когда мы едины,мы непобедимы!
blake75


Стаж: 4 года 1 мес.
Сообщений: 99
Ratio: 12,657
Поблагодарили: 637
100%

Сообщение 02 Июл 2013 13:42:41  Заголовок сообщения: Ответить с цитатой

Фильм, "пережив" который однажды, уже никогда не забудешь.
Спасибо!

_________________
Мои Релизы
mehan​ov201​0​


Стаж: 3 года 9 мес.
Сообщений: 4
Ratio: 36,028
18.9%
russia.gif

Сообщение 02 Июл 2013 21:40:44  Заголовок сообщения: Ответить с цитатой

Вот раньше снимали... :респект:
lapyzo


Стаж: 3 года 4 мес.
Сообщений: 104
Ratio: 12,896
Поблагодарили: 304
91.65%
Откуда: Уфа
russia.gif

Сообщение 03 Июл 2013 01:28:34  Заголовок сообщения: Ответить с цитатой

Фильм душевный! Очень красивый! В этом кино отлично всё: и режиссура, и операторская работа, и актёрское мастерство.
keofan


Стаж: 4 года 1 мес.
Сообщений: 83
Ratio: 5,59
90.68%
logo.gif

Сообщение 03 Июл 2013 09:49:01  Заголовок сообщения: Ответить с цитатой

любимый фильм из детства, плюс музыкальный ряд Вивальди, просто отпад!
Kalitenga


Стаж: 4 года 5 мес.
Сообщений: 248
Ratio: 4,716
90.24%
russia.gif

Сообщение 03 Июл 2013 16:19:14  Заголовок сообщения: Ответить с цитатой

Великий фильм!
bravo812

Стаж: 4 года 6 мес.
Сообщений: 234
Ratio: 2,478
43.9%

Сообщение 11 Май 2014 20:47:34  Заголовок сообщения: Ответить с цитатой

Сильнейший фильм и сюжет!
Помню его пацаном ещё совсем смотрел, тогда и патриотизм закладывался в меня.
Показать сообщения:   
Начать новую тему   Ответить на тему    Торрент-трекер NNM-Club -> Классика кино и Фильмы до 90-х -> Отечественная Классика (HD*Rip/LQ, DVDRip, SATRip, VHSRip) Часовой пояс: GMT + 4
Страница 1 из 1